<?xml version="1.0" standalone="no"?>
<!DOCTYPE svg PUBLIC "-//W3C//DTD SVG 1.1//EN" "http://www.w3.org/Graphics/SVG/1.1/DTD/svg11.dtd" >
<svg xmlns="http://www.w3.org/2000/svg" xmlns:xlink="http://www.w3.org/1999/xlink" version="1.1">
<metadata>
Created by FontForge 20161013 at Fri Jun 20 19:58:12 2014
 By ,,,
Copyright (c) 2014 Monotype Imaging Inc. All rights reserved.
</metadata>
<defs>
<font id="RNHouseSans-Light" horiz-adv-x="559" >
  <font-face 
    font-family="RN House Sans Light"
    font-weight="300"
    font-stretch="normal"
    units-per-em="1000"
    panose-1="2 11 4 4 2 2 3 2 2 4"
    ascent="745"
    descent="-255"
    x-height="485"
    cap-height="710"
    bbox="-195 -255 1060 955"
    underline-thickness="50"
    underline-position="-200"
    unicode-range="U+0020-FDFC"
  />
<missing-glyph horiz-adv-x="500" 
d="M0 0v700h500v-700h-500zM250 395l170 255h-340zM280 350l170 -255v510zM80 50h340l-170 255zM50 605v-510l170 255z" />
    <glyph glyph-name="fi" unicode="fi" horiz-adv-x="481" 
d="M201 739q53 0 90 -34l-33 -45q-24 21 -53 21q-66 0 -66 -86v-110h131v-59h-131v-426h-62v426h-52v59h52v112q0 73 35 107.5t89 34.5zM385 725q20 0 33 -11.5t13 -34.5t-13 -35t-33 -12t-33 12t-13 35t13 34.5t33 11.5zM416 0h-63v485h63v-485z" />
    <glyph glyph-name="fl" unicode="fl" horiz-adv-x="482" 
d="M201 739q53 0 90 -34l-33 -45q-24 21 -53 21q-66 0 -66 -86v-110h131v-59h-131v-426h-62v426h-52v59h52v112q0 73 35 107.5t89 34.5zM416 0h-63v730h63v-730z" />
    <glyph glyph-name="uniFDFC" unicode="&#xfdfc;" horiz-adv-x="881" arabic-form="isolated" 
d="M361 676v-601q0 -93 -46 -143.5t-123 -50.5q-76 0 -117 46.5t-41 124.5q0 60 24 112l53 -20q-18 -46 -18 -89q0 -53 25 -81.5t74 -28.5q51 0 80.5 32t29.5 96v603h59zM468 676v-443q0 -90 75 -90q42 0 68.5 27t26.5 73q0 48 -23 86l52 25q29 -52 29 -112
q0 -75 -44.5 -119t-110.5 -44q-60 0 -96 39t-36 113v445h59zM722 255l50 37q74 -88 74 -190q0 -90 -59.5 -160.5t-178.5 -113.5l-22 57q199 75 199 218q0 75 -63 152zM468 34q42 0 42 -42q0 -40 -42 -40q-41 0 -41 40q0 42 41 42zM592 34q41 0 41 -42q0 -40 -41 -40
q-42 0 -42 40q0 42 42 42z" />
    <glyph glyph-name=".notdef" horiz-adv-x="500" 
d="M0 0v700h500v-700h-500zM250 395l170 255h-340zM280 350l170 -255v510zM80 50h340l-170 255zM50 605v-510l170 255z" />
    <glyph glyph-name=".null" horiz-adv-x="0" 
 />
    <glyph glyph-name="nonmarkingreturn" horiz-adv-x="333" 
 />
    <glyph glyph-name="space" unicode=" " horiz-adv-x="310" 
 />
    <glyph glyph-name="exclam" unicode="!" horiz-adv-x="295" 
d="M112 710h70q0 -309 -14 -524h-42q-14 215 -14 524zM150 99q52 0 52 -52t-52 -52q-25 0 -39 13.5t-14 38.5t14 38.5t39 13.5z" />
    <glyph glyph-name="quotedbl" unicode="&#x22;" horiz-adv-x="355" 
d="M138 425h-55v299h55v-299zM279 425h-55v299h55v-299z" />
    <glyph glyph-name="numbersign" unicode="#" horiz-adv-x="685" 
d="M520 458l-31 -195h112l-7 -50h-112l-34 -213h-55l34 213h-215l-34 -213h-54l34 213h-112l7 50h112l31 195h-112l8 50h112l32 202h54l-32 -202h215l32 202h55l-32 -202h112l-8 -50h-112zM465 458h-215l-31 -195h215z" />
    <glyph glyph-name="dollar" unicode="$" horiz-adv-x="548" 
d="M488 180q0 -84 -48.5 -134.5t-131.5 -58.5v-81h-49v81q-76 5 -127 45t-72 104l54 30q24 -58 63 -89t103 -31t102.5 33t38.5 98q0 17 -2.5 31.5t-11 27t-14 21t-21.5 18t-23.5 14.5t-30.5 14t-31.5 12t-36.5 13q-81 30 -122.5 72t-41.5 114q0 79 45.5 124.5t127.5 50.5v81
h49v-81q122 -12 168 -118l-57 -31q-44 90 -139 90q-60 0 -94.5 -30t-34.5 -84q0 -31 12.5 -54.5t38.5 -39.5t45.5 -24t55.5 -20q40 -13 68 -26t57.5 -35.5t44.5 -57t15 -79.5z" />
    <glyph glyph-name="percent" unicode="%" horiz-adv-x="741" 
d="M98 0l-53 23l598 688l52 -22zM190 710q66 0 103.5 -40t37.5 -106t-37.5 -106t-103.5 -40q-65 0 -102.5 40t-37.5 106t37.5 106t102.5 40zM190 660q-40 0 -63.5 -26t-23.5 -70t23.5 -70t63.5 -26t63.5 26t23.5 70t-23.5 70t-63.5 26zM553 292q65 0 102.5 -40t37.5 -106
t-37.5 -106t-102.5 -40q-66 0 -103.5 40t-37.5 106t37.5 106t103.5 40zM552 242q-40 0 -63 -26t-23 -70t23 -70t63 -26t64 26t24 70q0 43 -24 69.5t-64 26.5z" />
    <glyph glyph-name="ampersand" unicode="&#x26;" horiz-adv-x="641" 
d="M531 -11l-69 70q-95 -88 -206 -88q-89 0 -148.5 50t-59.5 137q0 68 37 114.5t105 87.5q-72 100 -72 186q0 75 47 123t129 48q76 0 125 -41t49 -112q0 -39 -14.5 -72t-45 -60.5t-56 -45t-67.5 -42.5q49 -58 179 -194q37 44 106 145l50 -34q-70 -107 -112 -155l115 -117
h-92zM292 657q-54 0 -81.5 -31.5t-27.5 -77.5q0 -66 66 -156q75 40 115 77t40 89q0 43 -30.5 71t-81.5 28zM254 32q86 0 165 71q-135 139 -192 207q-56 -35 -83.5 -70t-27.5 -81q0 -56 37 -91.5t101 -35.5z" />
    <glyph glyph-name="quotesingle" unicode="'" horiz-adv-x="214" 
d="M135 425h-55v299h55v-299z" />
    <glyph glyph-name="parenleft" unicode="(" horiz-adv-x="295" 
d="M198 726h59q-114 -207 -114 -487q0 -281 114 -479h-59q-61 88 -93 214.5t-32 265.5q0 140 32 268.5t93 217.5z" />
    <glyph glyph-name="parenright" unicode=")" horiz-adv-x="295" 
d="M38 726h59q61 -89 93 -216.5t32 -266.5t-32 -266.5t-93 -216.5h-59q114 202 114 483t-114 483z" />
    <glyph glyph-name="asterisk" unicode="*" horiz-adv-x="435" 
d="M45 548l16 52l133 -45l-5 139h55l-3 -139l132 45l17 -52l-134 -37l86 -112l-45 -33l-79 118l-79 -118l-45 32l85 113z" />
    <glyph glyph-name="plus" unicode="+" horiz-adv-x="599" 
d="M555 223h-223v-223h-65v223h-222v64h222v223h65v-223h223v-64z" />
    <glyph glyph-name="comma" unicode="," horiz-adv-x="262" 
d="M190 35q0 -56 -29 -100.5t-73 -70.5l-16 24q58 43 75 112q-61 0 -61 52q0 53 54 53q50 0 50 -70z" />
    <glyph glyph-name="hyphen" unicode="-" horiz-adv-x="397" 
d="M349 242h-300v64h300v-64z" />
    <glyph glyph-name="period" unicode="." horiz-adv-x="248" 
d="M124 95q25 0 39 -14t14 -38q0 -25 -14 -39t-39 -14q-52 0 -52 53q0 24 13.5 38t38.5 14z" />
    <glyph glyph-name="slash" unicode="/" horiz-adv-x="317" 
d="M44 0h-56l285 710h57z" />
    <glyph glyph-name="zero" unicode="0" 
d="M280 690q111 0 167.5 -89.5t56.5 -262.5t-56.5 -262.5t-167.5 -89.5t-168 89.5t-57 262.5t57 262.5t168 89.5zM280 626q-78 0 -116.5 -70t-38.5 -218t38.5 -218t116.5 -70q77 0 115.5 70t38.5 218t-38.5 218t-115.5 70z" />
    <glyph glyph-name="one" unicode="1" 
d="M323 63h123v-63h-313v63h122v506q-38 -61 -121 -92l-18 62q102 43 150 137h57v-613z" />
    <glyph glyph-name="two" unicode="2" 
d="M493 63v-63h-442v48q60 65 132.5 140.5t104.5 109.5t65 75t44 69t11 60q0 57 -38.5 90.5t-104.5 33.5q-51 0 -88.5 -21.5t-70.5 -78.5l-52 37q64 127 218 127q96 0 151 -50.5t55 -134.5q0 -42 -13.5 -80t-47.5 -81t-65 -76t-93.5 -96t-105.5 -109h340z" />
    <glyph glyph-name="three" unicode="3" 
d="M358 358q57 -19 90.5 -65.5t33.5 -112.5q0 -87 -58.5 -140.5t-158.5 -53.5q-157 0 -223 139l54 38q56 -113 168 -113q69 0 108 36.5t39 99.5q0 132 -170 132h-51v63h37q78 0 121.5 33t43.5 93q0 54 -36.5 86.5t-101.5 32.5q-89 0 -143 -88l-50 42q59 110 196 110
q95 0 150 -50.5t55 -128.5q0 -50 -26 -91t-78 -62z" />
    <glyph glyph-name="four" unicode="4" 
d="M497 158h-73v-158h-68v158h-320v71l306 447h82v-456h73v-62zM356 220v378l-255 -378h255z" />
    <glyph glyph-name="five" unicode="5" 
d="M267 428q109 0 167 -57t58 -159q0 -104 -60.5 -165t-165.5 -61q-132 0 -214 109l50 43q73 -88 165 -88q72 0 113 42.5t41 119.5q0 153 -164 153q-84 0 -126 -48l-54 10l78 349h311v-63h-262l-49 -213q44 28 112 28z" />
    <glyph glyph-name="six" unicode="6" 
d="M292 433q97 0 154.5 -60.5t57.5 -155.5q0 -104 -61.5 -166.5t-160.5 -62.5q-103 0 -163 60t-60 164q0 77 32.5 158t64.5 128.5t114 155.5q10 15 16 22h81q-159 -204 -202 -287q48 44 127 44zM279 52q71 0 112.5 42.5t41.5 120.5q0 75 -40 115t-114 40q-72 0 -112 -40
t-40 -115q0 -78 41 -120.5t111 -42.5z" />
    <glyph glyph-name="seven" unicode="7" 
d="M494 676v-52l-254 -624h-80l255 608h-365v68h444z" />
    <glyph glyph-name="eight" unicode="8" 
d="M390 352q103 -49 103 -170q0 -87 -57.5 -141.5t-155.5 -54.5t-155.5 54.5t-57.5 141.5q0 121 102 170q-88 46 -88 152q0 82 54 134t145 52q90 0 144.5 -52t54.5 -134q0 -107 -89 -152zM280 627q-57 0 -93 -35t-36 -91t35.5 -90t93.5 -34q56 0 92.5 34.5t36.5 89.5
q0 56 -36.5 91t-92.5 35zM280 49q63 0 103 37.5t40 97.5t-40 97.5t-103 37.5q-64 0 -104 -37.5t-40 -97.5q0 -59 40 -97t104 -38z" />
    <glyph glyph-name="nine" unicode="9" 
d="M278 688q101 0 159.5 -61t58.5 -169q0 -24 -3.5 -49.5t-7.5 -46t-15.5 -49t-17 -44.5t-23 -47t-24 -43t-29 -46.5t-27.5 -42.5t-31 -46.5t-30 -43.5h-80q135 190 183 287q-50 -44 -129 -44q-96 0 -153.5 60.5t-57.5 158.5q0 102 62.5 164t164.5 62zM276 306
q73 0 112.5 40.5t39.5 115.5q0 78 -41 120t-111 42q-71 0 -112.5 -42.5t-41.5 -119.5q0 -75 40.5 -115.5t113.5 -40.5z" />
    <glyph glyph-name="colon" unicode=":" horiz-adv-x="248" 
d="M128 474q25 0 38.5 -14t13.5 -38q0 -53 -52 -53q-53 0 -53 53q0 24 14 38t39 14zM128 95q25 0 38.5 -14t13.5 -38q0 -53 -52 -53q-53 0 -53 53q0 24 14 38t39 14z" />
    <glyph glyph-name="semicolon" unicode=";" horiz-adv-x="263" 
d="M142 474q25 0 39 -14t14 -38q0 -25 -14 -39t-39 -14q-52 0 -52 53q0 24 13.5 38t38.5 14zM194 35q0 -56 -29 -100.5t-73 -70.5l-17 24q60 45 75 112q-60 0 -60 52q0 53 53 53q51 0 51 -70z" />
    <glyph glyph-name="less" unicode="&#x3c;" horiz-adv-x="599" 
d="M570 396l-432 -156l432 -156v-69l-510 195v60l510 195v-69z" />
    <glyph glyph-name="equal" unicode="=" horiz-adv-x="599" 
d="M555 330h-510v64h510v-64zM555 116h-510v64h510v-64z" />
    <glyph glyph-name="greater" unicode="&#x3e;" horiz-adv-x="599" 
d="M555 270v-60l-510 -195v69l432 156l-432 156v69z" />
    <glyph glyph-name="question" unicode="?" horiz-adv-x="501" 
d="M227 724q97 0 151 -50t54 -142q0 -37 -8.5 -67t-25.5 -53t-31.5 -36.5t-37.5 -31.5q-2 -2 -15 -11.5t-16 -12t-13 -11t-13 -12.5t-9.5 -12t-9 -14.5t-4.5 -15t-2 -17.5v-52h-65v46q0 34 12.5 61.5t27 42.5t40.5 36q3 3 16 13t17 13t15 13t15 15.5t12 15.5t11.5 18.5t8 20
t6 24.5t1.5 27q-1 62 -38.5 96t-103.5 34q-49 0 -85 -22.5t-65 -76.5l-51 37q59 124 206 124zM218 95q25 0 39 -14t14 -38q0 -25 -14 -39t-39 -14t-39 14t-14 39q0 24 14 38t39 14z" />
    <glyph glyph-name="at" unicode="@" horiz-adv-x="839" 
d="M436 686q163 0 263.5 -85t100.5 -233q0 -43 -8.5 -89t-28 -94.5t-58.5 -79.5t-92 -31q-43 0 -70.5 21t-30.5 63q-51 -45 -128 -45q-85 0 -129 49.5t-44 126.5q0 40 12 79t36.5 73t68 55t99.5 21q88 0 125 -51l5 34h57l-49 -287q-9 -49 2.5 -70.5t43.5 -21.5q46 0 79 40
t46 92t13 107q0 130 -82.5 204.5t-225.5 74.5q-77 0 -139 -23t-100 -59t-64 -84.5t-36 -95.5t-10 -96q0 -131 78 -212t229 -81q62 0 137 19l11 -45q-82 -22 -151 -22q-159 0 -257.5 89t-98.5 247q0 54 12 108t41 109.5t73 97.5t113.5 68.5t156.5 26.5zM424 465
q-42 0 -74 -18t-48.5 -46.5t-24.5 -57.5t-8 -56q0 -55 30.5 -88.5t83.5 -33.5q79 0 130 59l28 171q-29 70 -117 70z" />
    <glyph glyph-name="A" unicode="A" horiz-adv-x="674" 
d="M496 229h-323l-90 -229h-74l290 710h74l290 -710h-77zM472 293l-136 347l-137 -347h273z" />
    <glyph glyph-name="B" unicode="B" horiz-adv-x="618" 
d="M453 373q115 -42 115 -176q0 -88 -56 -142.5t-155 -54.5h-284v710h265q106 0 157 -50t51 -124q0 -50 -24 -93.5t-69 -69.5zM143 398h186q73 0 110 33.5t37 94.5q0 120 -147 120h-186v-248zM143 64h204q152 0 152 136t-162 136h-194v-272z" />
    <glyph glyph-name="C" unicode="C" horiz-adv-x="726" 
d="M377 728q183 0 275 -144l-54 -40q-78 120 -222 120q-119 0 -189.5 -81.5t-70.5 -227.5q0 -145 70 -227t189 -82q158 0 234 150l58 -33q-88 -181 -291 -181q-149 0 -239.5 96.5t-90.5 276.5t90.5 276.5t240.5 96.5z" />
    <glyph glyph-name="D" unicode="D" horiz-adv-x="705" 
d="M76 710h241q151 0 243.5 -92t92.5 -263t-92 -263t-243 -92h-242v710zM146 64h181q109 0 182.5 77.5t73.5 213.5t-73.5 213.5t-182.5 77.5h-181v-582z" />
    <glyph glyph-name="E" unicode="E" horiz-adv-x="596" 
d="M551 646h-408v-243h361v-64h-361v-275h408v-64h-478v710h478v-64z" />
    <glyph glyph-name="F" unicode="F" horiz-adv-x="547" 
d="M527 646h-381v-243h331v-64h-331v-339h-70v710h451v-64z" />
    <glyph glyph-name="G" unicode="G" horiz-adv-x="719" 
d="M682 353v-21q0 -96 -24.5 -166t-68.5 -108.5t-95.5 -56t-113.5 -17.5q-150 0 -242 96.5t-92 274.5t92.5 274.5t241.5 96.5q196 0 282 -153l-56 -41q-75 130 -226 130q-120 0 -192 -81t-72 -226q0 -144 72 -225.5t192 -81.5q104 0 163.5 61t66.5 180h-261v64h333z" />
    <glyph glyph-name="H" unicode="H" horiz-adv-x="697" 
d="M624 0h-70v341h-411v-341h-70v710h70v-305h411v305h70v-710z" />
    <glyph glyph-name="I" unicode="I" horiz-adv-x="217" 
d="M143 0h-70v710h70v-710z" />
    <glyph glyph-name="J" unicode="J" horiz-adv-x="421" 
d="M350 710v-530q0 -100 -48.5 -149t-126.5 -49q-106 0 -167 86l46 43q47 -65 120 -65q107 0 107 138v526h69z" />
    <glyph glyph-name="K" unicode="K" horiz-adv-x="622" 
d="M233 349l-90 -87v-262h-70v710h70v-360l376 360h91l-327 -314l333 -396h-91z" />
    <glyph glyph-name="L" unicode="L" horiz-adv-x="539" 
d="M143 64h386v-64h-456v710h70v-646z" />
    <glyph glyph-name="M" unicode="M" horiz-adv-x="839" 
d="M697 0l-14 572l-232 -542h-63l-233 544l-13 -574h-69l21 710h68l258 -596l257 596h68l21 -710h-69z" />
    <glyph glyph-name="N" unicode="N" horiz-adv-x="709" 
d="M635 0h-78l-412 605h-2v-605h-70v710h79l411 -605h2v605h70v-710z" />
    <glyph glyph-name="O" unicode="O" horiz-adv-x="759" 
d="M380 728q149 0 241 -97t92 -276t-92 -276t-241 -97q-150 0 -242 97t-92 276t92 276t242 97zM380 664q-120 0 -192 -82t-72 -227t72 -227t192 -82t191.5 81.5t71.5 227.5t-71.5 227.5t-191.5 81.5z" />
    <glyph glyph-name="P" unicode="P" horiz-adv-x="591" 
d="M76 710h254q118 0 175 -62t57 -161q0 -104 -59.5 -168t-172.5 -64h-184v-255h-70v710zM146 646v-327h176q85 0 127.5 44t42.5 124q0 159 -172 159h-174z" />
    <glyph glyph-name="Q" unicode="Q" horiz-adv-x="748" 
d="M710 355q0 -130 -50 -217.5t-138 -126.5l73 -123h-81l-60 102q-40 -8 -78 -8q-149 0 -241 97t-92 276t92 276t241 97q150 0 242 -97t92 -276zM376 46q120 0 192 82t72 227t-72 227t-192 82t-191.5 -81.5t-71.5 -227.5t71.5 -227.5t191.5 -81.5z" />
    <glyph glyph-name="R" unicode="R" horiz-adv-x="619" 
d="M492 0l-158 314h-191v-314h-70v710h273q110 0 163.5 -55.5t53.5 -141.5q0 -74 -40 -126t-117 -67l167 -320h-81zM143 378h195q78 0 116.5 35.5t38.5 100.5q0 132 -156 132h-194v-268z" />
    <glyph glyph-name="S" unicode="S" horiz-adv-x="583" 
d="M280 728q156 0 231 -110l-53 -43q-67 89 -176 89q-74 0 -116.5 -32t-42.5 -91q0 -26 10.5 -47t23 -33t40.5 -23.5t45 -16.5t54 -14q10 -3 16 -4q39 -10 63.5 -17.5t57 -24t50.5 -36.5t31.5 -53t13.5 -75q0 -101 -66 -156.5t-176 -55.5q-98 0 -163 42.5t-97 112.5l56 32
q71 -123 203 -123q77 0 125 36.5t48 105.5q0 36 -14 61t-40 40.5t-57 26t-70 20.5q-14 3 -21 5q-38 10 -60.5 17.5t-53 23t-47.5 34t-29 49t-12 69.5q0 91 60.5 141t165.5 50z" />
    <glyph glyph-name="T" unicode="T" horiz-adv-x="601" 
d="M590 646h-255v-646h-70v646h-255v64h580v-64z" />
    <glyph glyph-name="U" unicode="U" horiz-adv-x="691" 
d="M620 710v-462q0 -126 -76.5 -196t-199.5 -70t-199.5 70t-76.5 196v462h70v-462q0 -97 56.5 -149.5t149.5 -52.5q94 0 150 52.5t56 149.5v462h70z" />
    <glyph glyph-name="V" unicode="V" horiz-adv-x="635" 
d="M624 710l-265 -710h-82l-265 710h76l230 -639l230 639h76z" />
    <glyph glyph-name="W" unicode="W" horiz-adv-x="880" 
d="M863 710l-193 -710h-78l-151 584l-152 -584h-78l-193 710h72l161 -620l154 585h72l154 -587l160 622h72z" />
    <glyph glyph-name="X" unicode="X" horiz-adv-x="623" 
d="M521 0l-213 314l-214 -314h-79l249 364l-238 346h83l202 -293l204 293h78l-238 -343l249 -367h-83z" />
    <glyph glyph-name="Y" unicode="Y" horiz-adv-x="607" 
d="M338 296v-296h-70v296l-265 414h80l222 -349l223 349h76z" />
    <glyph glyph-name="Z" unicode="Z" horiz-adv-x="599" 
d="M578 0h-545v62l453 584h-419v64h499v-62l-452 -584h464v-64z" />
    <glyph glyph-name="bracketleft" unicode="[" horiz-adv-x="283" 
d="M250 691h-125v-877h125v-54h-182v985h182v-54z" />
    <glyph glyph-name="backslash" unicode="\" horiz-adv-x="317" 
d="M41 710l285 -710h-57l-285 710h57z" />
    <glyph glyph-name="bracketright" unicode="]" horiz-adv-x="283" 
d="M214 -240h-182v54h125v877h-125v54h182v-985z" />
    <glyph glyph-name="asciicircum" unicode="^" horiz-adv-x="582" 
d="M444 336l-153 270l-154 -270h-62l195 340h42l195 -340h-63z" />
    <glyph glyph-name="underscore" unicode="_" horiz-adv-x="509" 
d="M505 -140h-500v52h500v-52z" />
    <glyph glyph-name="grave" unicode="`" horiz-adv-x="219" 
d="M111 745l80 -153h-57l-113 153h90z" />
    <glyph glyph-name="a" unicode="a" horiz-adv-x="554" 
d="M269 498q106 0 157 -70v57h62v-485h-62v56q-51 -70 -157 -70q-107 0 -171 70.5t-64 185.5t64 185.5t171 70.5zM273 438q-80 0 -126 -52.5t-46 -143.5t46 -143.5t126 -52.5q54 0 94.5 26t58.5 73v189q-38 104 -153 104z" />
    <glyph glyph-name="b" unicode="b" horiz-adv-x="555" 
d="M128 730v-302q51 70 157 70q108 0 171 -70.5t63 -185.5t-63 -185.5t-171 -70.5q-106 0 -157 70v-56h-63v730h63zM281 438q-54 0 -94.5 -26.5t-58.5 -77.5v-189q18 -47 58.5 -73t94.5 -26q80 0 126 52.5t46 143.5t-46 143.5t-126 52.5z" />
    <glyph glyph-name="c" unicode="c" horiz-adv-x="503" 
d="M274 496q132 0 194 -109l-50 -38q-55 88 -144 88q-79 0 -125.5 -53t-46.5 -142t46 -142t121 -53q100 0 153 93l51 -30q-28 -57 -79.5 -89.5t-123.5 -32.5q-107 0 -171 70t-64 184t64.5 184t174.5 70z" />
    <glyph glyph-name="d" unicode="d" horiz-adv-x="555" 
d="M489 0h-62v56q-51 -70 -157 -70q-108 0 -171.5 70.5t-63.5 185.5t63.5 185.5t171.5 70.5q106 0 157 -70v302h62v-730zM274 438q-80 0 -126 -52.5t-46 -143.5t46 -143.5t126 -52.5q54 0 94.5 26t58.5 73v189q-38 104 -153 104z" />
    <glyph glyph-name="e" unicode="e" horiz-adv-x="531" 
d="M489 254q0 -16 -1 -27h-390q4 -84 51.5 -133t122.5 -49q105 0 160 88l51 -30q-65 -115 -210 -115q-111 0 -175 70t-64 184t62.5 184t168.5 70q103 0 163.5 -67.5t60.5 -174.5zM264 439q-67 0 -110 -42.5t-53 -112.5h322q-8 72 -50 113.5t-109 41.5z" />
    <glyph glyph-name="f" unicode="f" horiz-adv-x="288" 
d="M201 739q53 0 90 -34l-33 -45q-24 21 -53 21q-66 0 -66 -86v-110h131v-59h-131v-426h-62v426h-52v59h52v112q0 73 35 107.5t89 34.5z" />
    <glyph glyph-name="g" unicode="g" horiz-adv-x="555" 
d="M270 498q106 0 157 -70v57h62v-481q-1 -129 -64.5 -194t-172.5 -65q-115 0 -198 80l39 46q70 -68 157 -68q177 0 177 205v48q-51 -70 -157 -70q-107 0 -171 70.5t-64 185.5t64 185.5t171 70.5zM274 438q-80 0 -126 -52.5t-46 -143.5t46 -143.5t126 -52.5q54 0 94.5 26
t58.5 73v189q-38 104 -153 104z" />
    <glyph glyph-name="h" unicode="h" horiz-adv-x="554" 
d="M128 730v-311q63 77 167 77q203 0 203 -226v-270h-63v270q0 167 -148 167q-110 0 -159 -102v-335h-63v730h63z" />
    <glyph glyph-name="i" unicode="i" horiz-adv-x="193" 
d="M97 725q20 0 33 -11.5t13 -34.5t-13 -35t-33 -12t-33 12t-13 35t13 34.5t33 11.5zM128 0h-63v485h63v-485z" />
    <glyph glyph-name="j" unicode="j" horiz-adv-x="193" 
d="M97 725q20 0 33 -11.5t13 -34.5t-13 -35t-33 -12t-33 12t-13 35t13 34.5t33 11.5zM128 485v-584q-1 -79 -40.5 -114.5t-95.5 -35.5q-48 0 -87 27l23 51q29 -19 62 -19q32 0 53.5 21t21.5 64v590h63z" />
    <glyph glyph-name="k" unicode="k" horiz-adv-x="513" 
d="M128 277l267 208h97l-236 -182l247 -303h-82l-213 266l-80 -61v-205h-63v730h63v-453z" />
    <glyph glyph-name="l" unicode="l" horiz-adv-x="193" 
d="M128 0h-63v730h63v-730z" />
    <glyph glyph-name="m" unicode="m" horiz-adv-x="851" 
d="M608 496q187 0 187 -205v-291h-63v281q0 79 -34.5 117.5t-97.5 38.5q-95 0 -143 -87q4 -23 4 -54v-296h-62v286q0 151 -126 151q-100 0 -145 -96v-341h-63v485h63v-64q59 75 155 75q113 0 155 -83q58 83 170 83z" />
    <glyph glyph-name="n" unicode="n" horiz-adv-x="554" 
d="M295 496q203 0 203 -226v-270h-63v265q0 172 -148 172q-110 0 -159 -102v-335h-63v485h63v-66q63 77 167 77z" />
    <glyph glyph-name="o" unicode="o" horiz-adv-x="546" 
d="M273 496q112 0 175.5 -70t63.5 -184t-63.5 -184t-175.5 -70t-175.5 70t-63.5 184t63.5 184t175.5 70zM273 437q-80 0 -126 -52.5t-46 -142.5t46 -142.5t126 -52.5t126.5 52.5t46.5 142.5t-46.5 142.5t-126.5 52.5z" />
    <glyph glyph-name="p" unicode="p" horiz-adv-x="555" 
d="M285 498q108 0 171 -70t63 -185t-63 -185.5t-171 -70.5q-107 0 -157 70v-297h-63v725h63v-57q50 70 157 70zM281 439q-54 0 -94.5 -26t-58.5 -73v-189q18 -51 58.5 -78t94.5 -27q80 0 126 52.5t46 144.5q0 91 -46 143.5t-126 52.5z" />
    <glyph glyph-name="q" unicode="q" horiz-adv-x="555" 
d="M270 498q107 0 157 -70v57h62v-725h-62v297q-50 -70 -157 -70q-108 0 -171.5 70.5t-63.5 185.5q0 114 63.5 184.5t171.5 70.5zM274 439q-80 0 -126 -52.5t-46 -143.5q0 -92 46 -144.5t126 -52.5q54 0 94.5 27t58.5 78v189q-18 47 -58.5 73t-94.5 26z" />
    <glyph glyph-name="r" unicode="r" horiz-adv-x="388" 
d="M286 496q49 0 102 -26l-26 -57q-46 21 -86 21q-104 0 -148 -123v-311h-63v485h63v-85q46 96 158 96z" />
    <glyph glyph-name="s" unicode="s" horiz-adv-x="451" 
d="M224 496q109 0 174 -67l-39 -45q-55 55 -137 55q-112 0 -112 -75q0 -27 17.5 -44t35.5 -22.5t67 -16.5l12 -3q30 -7 49 -12t43 -16t37.5 -25t23.5 -36.5t10 -51.5q0 -69 -51 -109t-134 -40q-122 0 -193 88l42 42q31 -37 66.5 -55t87.5 -18q119 0 119 86q0 18 -6.5 31.5
t-14 21.5t-27 15t-30 10t-39 9t-39.5 9q-64 16 -101.5 45t-37.5 88q0 62 48.5 99t128.5 37z" />
    <glyph glyph-name="t" unicode="t" horiz-adv-x="337" 
d="M141 485h147v-59h-147v-289q0 -44 21.5 -66t55.5 -22q35 0 68 23l27 -48q-42 -33 -99 -33q-58 0 -96.5 36t-38.5 109v290h-56v59h56v132h62v-132z" />
    <glyph glyph-name="u" unicode="u" horiz-adv-x="544" 
d="M479 0h-63v64q-62 -75 -165 -75q-195 0 -195 226v270h63v-265q0 -172 140 -172q110 0 157 100v337h63v-485z" />
    <glyph glyph-name="v" unicode="v" horiz-adv-x="511" 
d="M501 485l-206 -485h-74l-211 485h73l176 -424l171 424h71z" />
    <glyph glyph-name="w" unicode="w" horiz-adv-x="782" 
d="M768 485l-165 -485h-74l-135 413l-131 -413h-74l-175 485h70l141 -423l132 423h76l134 -422l134 422h67z" />
    <glyph glyph-name="x" unicode="x" horiz-adv-x="533" 
d="M440 0l-179 215l-171 -215h-78l210 256l-202 229h82l158 -186l151 186h78l-191 -228l224 -257h-82z" />
    <glyph glyph-name="y" unicode="y" horiz-adv-x="515" 
d="M503 485l-313 -725h-69l113 249l-223 476h71l184 -402l167 402h70z" />
    <glyph glyph-name="z" unicode="z" horiz-adv-x="495" 
d="M447 441l-335 -382h349v-59h-432v50l329 376h-309v59h398v-44z" />
    <glyph glyph-name="braceleft" unicode="{" horiz-adv-x="319" 
d="M286 691h-65q-60 0 -60 -73v-242q0 -53 -28 -77.5t-58 -27.5v-2q13 -1 25.5 -6t27.5 -16t24 -34t9 -55v-271q0 -73 60 -73h65v-54h-80q-48 0 -75 31.5t-27 85.5v267q0 53 -31.5 75t-62.5 22v59q12 0 26 3.5t30.5 12.5t27 27.5t10.5 44.5v240q0 54 27 85.5t75 31.5h80v-54
z" />
    <glyph glyph-name="bar" unicode="|" horiz-adv-x="256" 
d="M153 -50h-50v790h50v-790z" />
    <glyph glyph-name="braceright" unicode="}" horiz-adv-x="314" 
d="M24 745h80q49 0 76 -31t27 -86v-240q0 -48 31.5 -68t62.5 -20v-59q-31 0 -62.5 -22t-31.5 -75v-267q0 -54 -27.5 -85.5t-75.5 -31.5h-80v54h65q60 0 60 73v271q0 32 9.5 55t24.5 34t27 16t25 6v2q-30 3 -58 28t-28 77v242q0 73 -60 73h-65v54z" />
    <glyph glyph-name="asciitilde" unicode="~" horiz-adv-x="599" 
d="M196 332q40 0 77.5 -20t71 -40t64.5 -20q37 0 60 21t28 57h62q-5 -59 -47.5 -100.5t-108.5 -41.5q-40 0 -77.5 20t-71 40t-64.5 20q-36 0 -59.5 -20.5t-28.5 -57.5h-61q5 59 46.5 100.5t108.5 41.5z" />
    <glyph glyph-name="exclamdown" unicode="&#xa1;" horiz-adv-x="295" 
d="M153 394q-25 0 -38.5 14t-13.5 38q0 53 52 53q53 0 53 -53q0 -24 -14 -38t-39 -14zM186 -216h-70q0 308 14 524h42q14 -216 14 -524z" />
    <glyph glyph-name="cent" unicode="&#xa2;" horiz-adv-x="550" 
d="M413 248l51 -25q-50 -101 -165 -111v-112h-49v112q-89 9 -141.5 75t-52.5 168q0 101 52 167t142 76v112h49v-112q106 -8 160 -98l-50 -33q-43 67 -110 75v-373q71 10 114 79zM119 355q0 -78 35.5 -128t95.5 -58v372q-61 -10 -96 -59.5t-35 -126.5z" />
    <glyph glyph-name="sterling" unicode="&#xa3;" horiz-adv-x="552" 
d="M460 121l52 -33q-62 -104 -168 -104q-29 0 -63.5 9.5t-53.5 17t-57 27t-43 21.5q-10 -19 -32 -59l-55 30q76 133 76 232q0 32 -4 52h-68v57h55q-1 2 -5.5 16.5t-5.5 18.5t-5 17t-5 21t-3.5 21.5t-3 26.5t-0.5 28q0 88 51.5 136.5t140.5 48.5q147 0 198 -144l-57 -31
q-25 66 -58.5 89.5t-74.5 23.5q-57 0 -93.5 -29.5t-39.5 -91.5q0 -27 4.5 -50.5t13.5 -54.5t13 -46h193v-57h-183q2 -30 2 -49q0 -76 -28 -150q131 -69 197 -69q35 0 59.5 18.5t50.5 56.5z" />
    <glyph glyph-name="yen" unicode="&#xa5;" horiz-adv-x="549" 
d="M335 306h128v-47h-159v-88h159v-47h-159v-124h-70v124h-154v47h154v88h-154v47h126l-177 370h76l166 -368l173 368h76z" />
    <glyph glyph-name="brokenbar" unicode="&#xa6;" horiz-adv-x="256" 
d="M151 437h-46v303h46v-303zM151 -50h-46v303h46v-303z" />
    <glyph glyph-name="section" unicode="&#xa7;" horiz-adv-x="516" 
d="M370 153q81 -41 81 -134q0 -82 -53.5 -127.5t-142.5 -45.5q-79 0 -131.5 34.5t-78.5 90.5l46 27q57 -99 164 -99q62 0 100.5 29.5t38.5 85.5q0 37 -22.5 61t-44.5 32t-81 24q-11 3 -17 5q-36 10 -59.5 20t-50 28.5t-39.5 48t-13 70.5q0 107 92 147q-72 38 -72 123
q0 74 49 114.5t135 40.5q127 0 187 -89l-43 -35q-56 72 -142 72q-60 0 -95 -26t-35 -73q0 -16 5 -30t11 -23.5t20.5 -18t22.5 -13t29 -10.5l28 -8t31 -7q41 -10 67 -20t55.5 -28.5t44 -48.5t14.5 -72q0 -106 -101 -145zM123 307q0 -18 5 -33t11 -25.5t20.5 -20t22.5 -14.5
t29 -11.5t28 -8t31 -7.5l29 -8q52 5 83.5 34.5t31.5 79.5q0 29 -10 48.5t-33.5 32.5t-46 20.5t-63.5 18.5l-12 3l-26 8q-47 -8 -73.5 -38t-26.5 -79z" />
    <glyph glyph-name="dieresis" unicode="&#xa8;" horiz-adv-x="322" 
d="M72 724q46 0 46 -46t-46 -46q-20 0 -33 11.5t-13 34.5t13 34.5t33 11.5zM253 724q47 0 47 -46t-47 -46q-20 0 -33 11.5t-13 34.5t13 34.5t33 11.5z" />
    <glyph glyph-name="copyright" unicode="&#xa9;" horiz-adv-x="765" 
d="M383 728q156 0 253.5 -99.5t97.5 -273.5t-97.5 -273.5t-253.5 -99.5t-253.5 99.5t-97.5 273.5t97.5 273.5t253.5 99.5zM383 688q-141 0 -226 -88.5t-85 -244.5t85 -244.5t226 -88.5q140 0 225 88.5t85 244.5t-85 244.5t-225 88.5zM387 614q118 0 183 -90l-39 -32
q-57 75 -145 75q-83 0 -131.5 -54.5t-48.5 -157.5t48 -157.5t131 -54.5q52 0 88 23.5t65 71.5l40 -25q-64 -117 -195 -117q-105 0 -167.5 66.5t-62.5 193.5t63 192.5t171 65.5z" />
    <glyph glyph-name="ordfeminine" unicode="&#xaa;" horiz-adv-x="403" 
d="M187 679q72 0 108 -48v39h61v-337h-61v39q-35 -48 -108 -48q-74 0 -118 48.5t-44 128.5t44 129t118 49zM194 624q-49 0 -77 -33t-28 -90t28.5 -90t77.5 -33q35 0 61.5 16t37.5 46v119q-22 65 -100 65z" />
    <glyph glyph-name="guillemotleft" unicode="&#xab;" horiz-adv-x="525" 
d="M102 289l172 -106v-69l-216 145v57l216 151v-69zM474 398l-172 -109l172 -106v-69l-216 145v57l216 151v-69z" />
    <glyph glyph-name="logicalnot" unicode="&#xac;" horiz-adv-x="599" 
d="M555 100h-66v206h-444v64h510v-270z" />
    <glyph glyph-name="registered" unicode="&#xae;" horiz-adv-x="766" 
d="M383 728q156 0 253.5 -99.5t97.5 -273.5t-97.5 -273.5t-253.5 -99.5t-253.5 99.5t-97.5 273.5t97.5 273.5t253.5 99.5zM383 22q141 0 225.5 88.5t84.5 244.5t-84.5 244.5t-225.5 88.5t-225.5 -88.5t-84.5 -244.5t84.5 -244.5t225.5 -88.5zM563 464q0 -48 -25 -84t-72 -50
l104 -203h-60l-99 195h-3h-131v-195h-51v473h182q79 0 117 -38t38 -98zM277 369h126q54 0 81 25.5t27 70.5q0 88 -109 88h-125v-184z" />
    <glyph glyph-name="macron" unicode="&#xaf;" horiz-adv-x="349" 
d="M325 661h-300v49h300v-49z" />
    <glyph glyph-name="degree" unicode="&#xb0;" horiz-adv-x="361" 
d="M182 745q72 0 113.5 -41.5t41.5 -110.5q0 -68 -41.5 -109.5t-113.5 -41.5q-73 0 -115 41.5t-42 109.5q0 69 42 110.5t115 41.5zM181 697q-49 0 -76.5 -27.5t-27.5 -77.5q0 -48 27.5 -74.5t76.5 -26.5q47 0 75.5 27t28.5 74q0 49 -28.5 77t-75.5 28z" />
    <glyph glyph-name="plusminus" unicode="&#xb1;" horiz-adv-x="599" 
d="M555 349v-64h-223v-161h-65v161h-222v64h222v161h65v-161h223zM45 64h510v-64h-510v64z" />
    <glyph glyph-name="twosuperior" unicode="&#xb2;" horiz-adv-x="384" 
d="M338 386v-56h-297v44q37 40 81 86t64 66.5t40.5 45.5t27 42t6.5 36q0 33 -21.5 52.5t-58.5 19.5q-63 0 -101 -59l-41 36q45 81 148 81q66 0 104 -34.5t38 -91.5q0 -26 -8 -50t-29 -50.5t-39 -46t-56 -57.5t-62 -64h204z" />
    <glyph glyph-name="threesuperior" unicode="&#xb3;" horiz-adv-x="386" 
d="M258 563q75 -29 75 -111q0 -59 -40 -95t-110 -36q-109 0 -153 94l50 35q33 -71 103 -71q38 0 60 20.5t22 55.5q0 73 -97 73h-38v57h29q45 0 69 18.5t24 52.5q0 30 -19.5 48t-55.5 18q-53 0 -90 -56l-44 38q40 76 135 76q66 0 104 -34.5t38 -86.5q0 -67 -62 -96z" />
    <glyph glyph-name="acute" unicode="&#xb4;" horiz-adv-x="219" 
d="M81 592h-56l80 153h89z" />
    <glyph glyph-name="uni00B5" unicode="&#xb5;" horiz-adv-x="553" 
d="M488 0h-63v64q-62 -75 -165 -75q-91 0 -132 59v-288h-63v725h63v-265q0 -172 140 -172q110 0 157 100v337h63v-485z" />
    <glyph glyph-name="paragraph" unicode="&#xb6;" horiz-adv-x="560" 
d="M486 656h-59v-759h-58v759h-87v-759h-57v484h-14q-181 0 -181 164q0 91 51.5 128t151.5 37h253v-54z" />
    <glyph glyph-name="periodcentered" unicode="&#xb7;" horiz-adv-x="248" 
d="M128 388q25 0 38.5 -14t13.5 -38q0 -53 -52 -53q-53 0 -53 53q0 24 14 38t39 14z" />
    <glyph glyph-name="cedilla" unicode="&#xb8;" horiz-adv-x="269" 
d="M151 0l-28 -59q121 -4 121 -82q0 -45 -32 -66.5t-82 -21.5q-60 0 -105 26l15 40q42 -20 88 -20q61 0 61 40q0 49 -122 51l32 92h52z" />
    <glyph glyph-name="onesuperior" unicode="&#xb9;" horiz-adv-x="333" 
d="M205 386h81v-56h-228v56h82v295q-24 -36 -75 -56l-19 54q68 31 100 92h59v-385z" />
    <glyph glyph-name="ordmasculine" unicode="&#xba;" horiz-adv-x="391" 
d="M196 678q80 0 125 -48.5t45 -128.5t-45 -128t-125 -48q-81 0 -126 48t-45 128t45.5 128.5t125.5 48.5zM196 623q-50 0 -78.5 -32.5t-28.5 -89.5t28.5 -89.5t78.5 -32.5q49 0 77.5 33t28.5 89t-28.5 89t-77.5 33z" />
    <glyph glyph-name="guillemotright" unicode="&#xbb;" horiz-adv-x="525" 
d="M264 261l-217 -151v69l172 109l-172 107v69l217 -146v-57zM464 318v-57l-217 -151v69l172 109l-172 107v69z" />
    <glyph glyph-name="onequarter" unicode="&#xbc;" horiz-adv-x="847" 
d="M140 326v295q-24 -36 -75 -56l-19 54q68 31 100 92h59v-385h81v-56h-228v56h82zM657 710l-466 -750h-53l466 750h53zM804 96h-49v-96h-66v96h-201v54l196 291h71v-293h49v-52zM689 148v215l-144 -215h144z" />
    <glyph glyph-name="onehalf" unicode="&#xbd;" horiz-adv-x="845" 
d="M140 326v295q-24 -36 -75 -56l-19 54q68 31 100 92h59v-385h81v-56h-228v56h82zM657 710l-466 -750h-53l466 750h53zM799 56v-56h-297v44q37 40 81 86t64 66.5t40.5 45.5t27 42t6.5 36q0 33 -21.5 52.5t-58.5 19.5q-63 0 -101 -59l-41 36q45 81 148 81q66 0 104 -34.5
t38 -91.5q0 -26 -8 -50t-29 -50.5t-39 -46t-56 -57.5t-62 -64h204z" />
    <glyph glyph-name="threequarters" unicode="&#xbe;" horiz-adv-x="900" 
d="M333 392q0 -59 -40 -95t-110 -36q-109 0 -153 94l50 35q33 -71 103 -71q38 0 60 20.5t22 55.5q0 73 -97 73h-38v57h29q45 0 69 18.5t24 52.5q0 30 -19.5 48t-55.5 18q-53 0 -90 -56l-44 38q40 76 135 76q66 0 104.5 -34.5t38.5 -86.5q0 -67 -63 -96q75 -29 75 -111z
M710 710l-466 -750h-53l466 750h53zM857 96h-49v-96h-66v96h-201v54l196 291h71v-293h49v-52zM742 148v215l-144 -215h144z" />
    <glyph glyph-name="questiondown" unicode="&#xbf;" horiz-adv-x="501" 
d="M254 499q25 0 39 -14t14 -39q0 -24 -14 -38t-39 -14t-38.5 14t-13.5 38q0 53 52 53zM290 303v-46q0 -49 -20 -79t-59 -61q-3 -2 -18 -14t-19 -15.5t-16.5 -15t-17 -17.5t-12.5 -18.5t-11 -23t-6 -25.5t-3 -31q1 -62 38.5 -96t103.5 -34q50 0 85.5 22.5t65.5 76.5l51 -37
q-61 -124 -206 -124q-97 0 -151.5 50t-54.5 142q0 37 8.5 67t25.5 53t31.5 36.5t37.5 31.5q53 39 66 57q16 22 16 49v52h65z" />
    <glyph glyph-name="Agrave" unicode="&#xc0;" horiz-adv-x="674" 
d="M324 772l-113 153h94l80 -153h-61zM496 229h-323l-90 -229h-74l290 710h74l290 -710h-77zM472 293l-136 347l-137 -347h273z" />
    <glyph glyph-name="Aacute" unicode="&#xc1;" horiz-adv-x="674" 
d="M354 772h-61l80 153h94zM496 229h-323l-90 -229h-74l290 710h74l290 -710h-77zM472 293l-136 347l-137 -347h273z" />
    <glyph glyph-name="Acircumflex" unicode="&#xc2;" horiz-adv-x="674" 
d="M238 782h-79l132 143h90l133 -143h-79l-99 102zM496 229h-323l-90 -229h-74l290 710h74l290 -710h-77zM472 293l-136 347l-137 -347h273z" />
    <glyph glyph-name="Atilde" unicode="&#xc3;" horiz-adv-x="674" 
d="M257 857q-43 0 -51 -51h-53q12 102 101 102q35 0 80 -20q62 -24 82 -24q43 0 52 51h53q-4 -51 -31 -76.5t-71 -25.5q-37 0 -96 26q-48 18 -66 18zM496 229h-323l-90 -229h-74l290 710h74l290 -710h-77zM472 293l-136 347l-137 -347h273z" />
    <glyph glyph-name="Adieresis" unicode="&#xc4;" horiz-adv-x="674" 
d="M246 807q-46 0 -46 47q0 23 13 34.5t33 11.5t33 -11.5t13 -34.5q0 -24 -13 -35.5t-33 -11.5zM427 807q-46 0 -46 47q0 23 13 34.5t33 11.5t33 -11.5t13 -34.5q0 -24 -13 -35.5t-33 -11.5zM496 229h-323l-90 -229h-74l290 710h74l290 -710h-77zM472 293l-136 347
l-137 -347h273z" />
    <glyph glyph-name="Aring" unicode="&#xc5;" horiz-adv-x="674" 
d="M338 746q-50 0 -79 28.5t-29 75.5q0 48 29 76.5t79 28.5t78.5 -28.5t28.5 -76.5q0 -47 -28.5 -75.5t-78.5 -28.5zM337 917q-31 0 -49 -17.5t-18 -49.5t17.5 -49t49.5 -17q31 0 49.5 17t18.5 49q0 31 -18.5 49t-49.5 18zM496 229h-323l-90 -229h-74l290 710h74l290 -710
h-77zM472 293l-136 347l-137 -347h273z" />
    <glyph glyph-name="AE" unicode="&#xc6;" horiz-adv-x="972" 
d="M529 646v-243h362v-64h-362v-275h398v-64h-467v229h-279l-119 -229h-79l385 710h559v-64h-398zM460 293v353h-61l-184 -353h245z" />
    <glyph glyph-name="Ccedilla" unicode="&#xc7;" horiz-adv-x="726" 
d="M609 196l58 -33q-88 -181 -291 -181l-19 -41q121 -4 121 -82q0 -45 -32.5 -66.5t-81.5 -21.5q-60 0 -105 26l15 40q42 -20 88 -20q61 0 61 40q0 49 -122 51l27 77q-129 15 -205.5 110.5t-76.5 259.5q0 180 90.5 276.5t240.5 96.5q183 0 275 -144l-54 -40
q-78 120 -222 120q-119 0 -189.5 -81.5t-70.5 -227.5q0 -145 70 -227t189 -82q158 0 234 150z" />
    <glyph glyph-name="Egrave" unicode="&#xc8;" horiz-adv-x="596" 
d="M265 925l80 -153h-61l-113 153h94zM551 646h-408v-243h361v-64h-361v-275h408v-64h-478v710h478v-64z" />
    <glyph glyph-name="Eacute" unicode="&#xc9;" horiz-adv-x="596" 
d="M314 772h-61l80 153h94zM551 646h-408v-243h361v-64h-361v-275h408v-64h-478v710h478v-64z" />
    <glyph glyph-name="Ecircumflex" unicode="&#xca;" horiz-adv-x="596" 
d="M474 782h-79l-99 102l-98 -102h-79l132 143h90zM551 646h-408v-243h361v-64h-361v-275h408v-64h-478v710h478v-64z" />
    <glyph glyph-name="Edieresis" unicode="&#xcb;" horiz-adv-x="596" 
d="M206 900q20 0 33 -11.5t13 -34.5q0 -24 -13 -35.5t-33 -11.5q-46 0 -46 47q0 23 13 34.5t33 11.5zM387 900q20 0 33 -11.5t13 -34.5q0 -24 -13 -35.5t-33 -11.5q-46 0 -46 47q0 23 13 34.5t33 11.5zM551 646h-408v-243h361v-64h-361v-275h408v-64h-478v710h478v-64z" />
    <glyph glyph-name="Igrave" unicode="&#xcc;" horiz-adv-x="217" 
d="M76 925l80 -153h-61l-113 153h94zM143 0h-70v710h70v-710z" />
    <glyph glyph-name="Iacute" unicode="&#xcd;" horiz-adv-x="217" 
d="M125 772h-61l80 153h94zM143 0h-70v710h70v-710z" />
    <glyph glyph-name="Icircumflex" unicode="&#xce;" horiz-adv-x="217" 
d="M286 782h-79l-99 102l-98 -102h-79l132 143h90zM143 0h-70v710h70v-710z" />
    <glyph glyph-name="Idieresis" unicode="&#xcf;" horiz-adv-x="217" 
d="M17 900q20 0 33 -11.5t13 -34.5q0 -24 -13 -35.5t-33 -11.5q-46 0 -46 47q0 23 13 34.5t33 11.5zM198 900q20 0 33 -11.5t13 -34.5q0 -24 -13 -35.5t-33 -11.5q-46 0 -46 47q0 23 13 34.5t33 11.5zM143 0h-70v710h70v-710z" />
    <glyph glyph-name="Eth" unicode="&#xd0;" horiz-adv-x="697" 
d="M78 710h240q151 0 243.5 -92t92.5 -263t-92 -263t-243 -92h-241v339h-61v64h61v307zM148 64h180q109 0 182.5 77.5t73.5 213.5t-73.5 213.5t-182.5 77.5h-180v-243h211v-64h-211v-275z" />
    <glyph glyph-name="Ntilde" unicode="&#xd1;" horiz-adv-x="709" 
d="M485 915h53q-4 -51 -31 -76.5t-71 -25.5q-37 0 -96 26q-48 18 -66 18q-43 0 -51 -51h-53q12 102 101 102q35 0 80 -20q62 -24 82 -24q43 0 52 51zM635 0h-78l-412 605h-2v-605h-70v710h79l411 -605h2v605h70v-710z" />
    <glyph glyph-name="Ograve" unicode="&#xd2;" horiz-adv-x="759" 
d="M348 925l80 -153h-61l-113 153h94zM380 728q149 0 241 -97t92 -276t-92 -276t-241 -97q-150 0 -242 97t-92 276t92 276t242 97zM380 664q-120 0 -192 -82t-72 -227t72 -227t192 -82t191.5 81.5t71.5 227.5t-71.5 227.5t-191.5 81.5z" />
    <glyph glyph-name="Oacute" unicode="&#xd3;" horiz-adv-x="759" 
d="M396 772h-61l80 153h94zM380 728q149 0 241 -97t92 -276t-92 -276t-241 -97q-150 0 -242 97t-92 276t92 276t242 97zM380 664q-120 0 -192 -82t-72 -227t72 -227t192 -82t191.5 81.5t71.5 227.5t-71.5 227.5t-191.5 81.5z" />
    <glyph glyph-name="Ocircumflex" unicode="&#xd4;" horiz-adv-x="759" 
d="M557 782h-79l-99 102l-98 -102h-79l132 143h90zM380 728q149 0 241 -97t92 -276t-92 -276t-241 -97q-150 0 -242 97t-92 276t92 276t242 97zM380 664q-120 0 -192 -82t-72 -227t72 -227t192 -82t191.5 81.5t71.5 227.5t-71.5 227.5t-191.5 81.5z" />
    <glyph glyph-name="Otilde" unicode="&#xd5;" horiz-adv-x="759" 
d="M510 915h53q-4 -51 -31 -76.5t-71 -25.5q-37 0 -96 26q-48 18 -66 18q-43 0 -51 -51h-53q12 102 101 102q35 0 80 -20q62 -24 82 -24q43 0 52 51zM380 728q149 0 241 -97t92 -276t-92 -276t-241 -97q-150 0 -242 97t-92 276t92 276t242 97zM380 664q-120 0 -192 -82
t-72 -227t72 -227t192 -82t191.5 81.5t71.5 227.5t-71.5 227.5t-191.5 81.5z" />
    <glyph glyph-name="Odieresis" unicode="&#xd6;" horiz-adv-x="759" 
d="M288 900q20 0 33 -11.5t13 -34.5q0 -24 -13 -35.5t-33 -11.5q-46 0 -46 47q0 23 13 34.5t33 11.5zM469 900q20 0 33 -11.5t13 -34.5q0 -24 -13 -35.5t-33 -11.5q-46 0 -46 47q0 23 13 34.5t33 11.5zM380 728q149 0 241 -97t92 -276t-92 -276t-241 -97q-150 0 -242 97
t-92 276t92 276t242 97zM380 664q-120 0 -192 -82t-72 -227t72 -227t192 -82t191.5 81.5t71.5 227.5t-71.5 227.5t-191.5 81.5z" />
    <glyph glyph-name="multiply" unicode="&#xd7;" horiz-adv-x="592" 
d="M342 255l205 -205l-43 -42l-204 205l-205 -205l-43 42l205 205l-205 205l43 42l205 -204l204 204l43 -42z" />
    <glyph glyph-name="Oslash" unicode="&#xd8;" horiz-adv-x="748" 
d="M653 706l-44 -61q106 -100 106 -290q0 -179 -92 -276t-242 -97q-121 0 -206 65l-53 -73l-41 29l57 78q-90 99 -90 274q0 179 92 276t241 97q108 0 189 -52l44 60zM118 355q0 -133 62 -216l350 482q-63 43 -149 43q-120 0 -191.5 -81.5t-71.5 -227.5zM381 46q120 0 192 82
t72 227q0 149 -78 233l-352 -486q67 -56 166 -56z" />
    <glyph glyph-name="Ugrave" unicode="&#xd9;" horiz-adv-x="691" 
d="M312 925l80 -153h-61l-113 153h94zM620 710v-462q0 -126 -76.5 -196t-199.5 -70t-199.5 70t-76.5 196v462h70v-462q0 -97 56.5 -149.5t149.5 -52.5q94 0 150 52.5t56 149.5v462h70z" />
    <glyph glyph-name="Uacute" unicode="&#xda;" horiz-adv-x="691" 
d="M361 772h-61l80 153h94zM620 710v-462q0 -126 -76.5 -196t-199.5 -70t-199.5 70t-76.5 196v462h70v-462q0 -97 56.5 -149.5t149.5 -52.5q94 0 150 52.5t56 149.5v462h70z" />
    <glyph glyph-name="Ucircumflex" unicode="&#xdb;" horiz-adv-x="691" 
d="M522 782h-79l-99 102l-98 -102h-79l132 143h90zM620 710v-462q0 -126 -76.5 -196t-199.5 -70t-199.5 70t-76.5 196v462h70v-462q0 -97 56.5 -149.5t149.5 -52.5q94 0 150 52.5t56 149.5v462h70z" />
    <glyph glyph-name="Udieresis" unicode="&#xdc;" horiz-adv-x="691" 
d="M253 900q20 0 33 -11.5t13 -34.5q0 -24 -13 -35.5t-33 -11.5q-46 0 -46 47q0 23 13 34.5t33 11.5zM434 900q20 0 33 -11.5t13 -34.5q0 -24 -13 -35.5t-33 -11.5q-46 0 -46 47q0 23 13 34.5t33 11.5zM620 710v-462q0 -126 -76.5 -196t-199.5 -70t-199.5 70t-76.5 196v462
h70v-462q0 -97 56.5 -149.5t149.5 -52.5q94 0 150 52.5t56 149.5v462h70z" />
    <glyph glyph-name="Yacute" unicode="&#xdd;" horiz-adv-x="607" 
d="M330 794h-57l80 153h89zM338 296v-296h-70v296l-265 414h80l222 -349l223 349h76z" />
    <glyph glyph-name="Thorn" unicode="&#xde;" horiz-adv-x="591" 
d="M146 596h184q118 0 175 -62t57 -161q0 -104 -59.5 -168t-172.5 -64h-184v-141h-70v710h70v-114zM146 532v-327h176q85 0 127.5 44t42.5 124q0 159 -172 159h-174z" />
    <glyph glyph-name="germandbls" unicode="&#xdf;" horiz-adv-x="567" 
d="M365 403q82 -20 124.5 -73.5t42.5 -126.5q0 -95 -59.5 -155t-154.5 -60q-82 0 -126 30l31 53q35 -24 97 -24q64 0 104.5 42t40.5 115q0 154 -216 163v55q68 3 111 43t43 101q0 55 -35 87.5t-94 32.5q-146 0 -146 -190v-496h-63v496q0 118 54.5 183.5t153.5 65.5
q89 0 143 -50t54 -129q0 -52 -28 -95t-77 -68z" />
    <glyph glyph-name="agrave" unicode="&#xe0;" horiz-adv-x="554" 
d="M239 745l80 -153h-57l-113 153h90zM269 498q106 0 157 -70v57h62v-485h-62v56q-51 -70 -157 -70q-107 0 -171 70.5t-64 185.5t64 185.5t171 70.5zM273 438q-80 0 -126 -52.5t-46 -143.5t46 -143.5t126 -52.5q54 0 94.5 26t58.5 73v189q-38 104 -153 104z" />
    <glyph glyph-name="aacute" unicode="&#xe1;" horiz-adv-x="554" 
d="M288 592h-56l80 153h89zM269 498q106 0 157 -70v57h62v-485h-62v56q-51 -70 -157 -70q-107 0 -171 70.5t-64 185.5t64 185.5t171 70.5zM273 438q-80 0 -126 -52.5t-46 -143.5t46 -143.5t126 -52.5q54 0 94.5 26t58.5 73v189q-38 104 -153 104z" />
    <glyph glyph-name="acircumflex" unicode="&#xe2;" horiz-adv-x="554" 
d="M449 602h-74l-99 102l-98 -102h-74l132 143h80zM269 498q106 0 157 -70v57h62v-485h-62v56q-51 -70 -157 -70q-107 0 -171 70.5t-64 185.5t64 185.5t171 70.5zM273 438q-80 0 -126 -52.5t-46 -143.5t46 -143.5t126 -52.5q54 0 94.5 26t58.5 73v189q-38 104 -153 104z" />
    <glyph glyph-name="atilde" unicode="&#xe3;" horiz-adv-x="554" 
d="M408 725h53q-9 -101 -102 -101q-36 0 -91 23q-50 20 -71 20q-43 0 -51 -51h-53q12 102 101 102q31 0 85 -22q55 -21 77 -21q43 0 52 50zM269 498q106 0 157 -70v57h62v-485h-62v56q-51 -70 -157 -70q-107 0 -171 70.5t-64 185.5t64 185.5t171 70.5zM273 438
q-80 0 -126 -52.5t-46 -143.5t46 -143.5t126 -52.5q54 0 94.5 26t58.5 73v189q-38 104 -153 104z" />
    <glyph glyph-name="adieresis" unicode="&#xe4;" horiz-adv-x="554" 
d="M183 724q46 0 46 -46t-46 -46q-20 0 -33 11.5t-13 34.5t13 34.5t33 11.5zM364 724q47 0 47 -46t-47 -46q-20 0 -33 11.5t-13 34.5t13 34.5t33 11.5zM269 498q106 0 157 -70v57h62v-485h-62v56q-51 -70 -157 -70q-107 0 -171 70.5t-64 185.5t64 185.5t171 70.5zM273 438
q-80 0 -126 -52.5t-46 -143.5t46 -143.5t126 -52.5q54 0 94.5 26t58.5 73v189q-38 104 -153 104z" />
    <glyph glyph-name="aring" unicode="&#xe5;" horiz-adv-x="554" 
d="M277 755q50 0 78.5 -28.5t28.5 -76.5q0 -47 -28.5 -75.5t-78.5 -28.5t-79 28.5t-29 75.5q0 48 29 76.5t79 28.5zM276 718q-32 0 -49.5 -18t-17.5 -50q0 -31 17.5 -48t49.5 -17q31 0 49.5 17t18.5 48q0 32 -18.5 50t-49.5 18zM269 498q106 0 157 -70v57h62v-485h-62v56
q-51 -70 -157 -70q-107 0 -171 70.5t-64 185.5t64 185.5t171 70.5zM273 438q-80 0 -126 -52.5t-46 -143.5t46 -143.5t126 -52.5q54 0 94.5 26t58.5 73v189q-38 104 -153 104z" />
    <glyph glyph-name="ae" unicode="&#xe6;" horiz-adv-x="921" 
d="M879 254q0 -16 -1 -27h-390q4 -84 51.5 -133t122.5 -49q105 0 160 88l51 -30q-30 -53 -84.5 -84t-123.5 -31q-116 0 -177 86v-74h-61v61q-51 -75 -158 -75q-106 0 -170 70.5t-64 185.5t64 185.5t170 70.5t158 -74v61h61v-74q59 85 170 85q101 0 161 -67.5t60 -174.5z
M654 439q-67 0 -110 -42.5t-53 -112.5h322q-8 72 -50 113.5t-109 41.5zM428 145v189q-18 51 -59 77.5t-96 26.5q-79 0 -125 -52.5t-46 -143.5t46 -143.5t125 -52.5q56 0 97 26t58 73z" />
    <glyph glyph-name="ccedilla" unicode="&#xe7;" horiz-adv-x="503" 
d="M269 -12l-22 -47q121 -4 121 -82q0 -45 -32 -66.5t-82 -21.5q-60 0 -105 26l15 40q42 -20 88 -20q61 0 61 40q0 49 -122 51l29 84q-86 16 -135.5 83.5t-49.5 166.5q0 114 64.5 184t174.5 70q132 0 194 -109l-50 -38q-55 88 -144 88q-79 0 -125.5 -53t-46.5 -142t46 -142
t121 -53q100 0 153 93l51 -30q-28 -57 -80 -89.5t-124 -32.5z" />
    <glyph glyph-name="egrave" unicode="&#xe8;" horiz-adv-x="531" 
d="M251 592l-113 153h90l80 -153h-57zM489 254q0 -16 -1 -27h-390q4 -84 51.5 -133t122.5 -49q105 0 160 88l51 -30q-65 -115 -210 -115q-111 0 -175 70t-64 184t62.5 184t168.5 70q103 0 163.5 -67.5t60.5 -174.5zM264 439q-67 0 -110 -42.5t-53 -112.5h322
q-8 72 -50 113.5t-109 41.5z" />
    <glyph glyph-name="eacute" unicode="&#xe9;" horiz-adv-x="531" 
d="M276 592h-56l80 153h89zM489 254q0 -16 -1 -27h-390q4 -84 51.5 -133t122.5 -49q105 0 160 88l51 -30q-65 -115 -210 -115q-111 0 -175 70t-64 184t62.5 184t168.5 70q103 0 163.5 -67.5t60.5 -174.5zM264 439q-67 0 -110 -42.5t-53 -112.5h322q-8 72 -50 113.5
t-109 41.5z" />
    <glyph glyph-name="ecircumflex" unicode="&#xea;" horiz-adv-x="531" 
d="M167 602h-74l132 143h80l133 -143h-74l-99 102zM489 254q0 -16 -1 -27h-390q4 -84 51.5 -133t122.5 -49q105 0 160 88l51 -30q-65 -115 -210 -115q-111 0 -175 70t-64 184t62.5 184t168.5 70q103 0 163.5 -67.5t60.5 -174.5zM264 439q-67 0 -110 -42.5t-53 -112.5h322
q-8 72 -50 113.5t-109 41.5z" />
    <glyph glyph-name="edieresis" unicode="&#xeb;" horiz-adv-x="531" 
d="M171 632q-20 0 -33 11.5t-13 34.5t13 34.5t33 11.5q46 0 46 -46t-46 -46zM352 632q-20 0 -33 11.5t-13 34.5t13 34.5t33 11.5q47 0 47 -46t-47 -46zM489 254q0 -16 -1 -27h-390q4 -84 51.5 -133t122.5 -49q105 0 160 88l51 -30q-65 -115 -210 -115q-111 0 -175 70
t-64 184t62.5 184t168.5 70q103 0 163.5 -67.5t60.5 -174.5zM264 439q-67 0 -110 -42.5t-53 -112.5h322q-8 72 -50 113.5t-109 41.5z" />
    <glyph glyph-name="igrave" unicode="&#xec;" horiz-adv-x="193" 
d="M59 745l80 -153h-57l-113 153h90zM128 0h-63v485h63v-485z" />
    <glyph glyph-name="iacute" unicode="&#xed;" horiz-adv-x="193" 
d="M108 592h-56l80 153h89zM128 0h-63v485h63v-485z" />
    <glyph glyph-name="icircumflex" unicode="&#xee;" horiz-adv-x="193" 
d="M269 602h-74l-99 102l-98 -102h-74l132 143h80zM128 0h-63v485h63v-485z" />
    <glyph glyph-name="idieresis" unicode="&#xef;" horiz-adv-x="193" 
d="M3 724q46 0 46 -46t-46 -46q-20 0 -33 11.5t-13 34.5t13 34.5t33 11.5zM184 724q47 0 47 -46t-47 -46q-20 0 -33 11.5t-13 34.5t13 34.5t33 11.5zM128 0h-63v485h63v-485z" />
    <glyph glyph-name="eth" unicode="&#xf0;" horiz-adv-x="549" 
d="M433 664l-72 -32q152 -127 152 -348q0 -140 -62 -218t-175 -78q-111 0 -176 70t-65 184q0 113 65 183.5t168 70.5q100 0 158 -65l2 2q-36 97 -131 171l-166 -74l-24 49l137 61q-49 29 -110 50l23 50q89 -29 153 -71l100 44zM275 47q81 0 127.5 61.5t46.5 182.5
q0 20 -2 48q-57 98 -169 98q-81 0 -128.5 -52.5t-47.5 -142.5q0 -89 46.5 -142t126.5 -53z" />
    <glyph glyph-name="ntilde" unicode="&#xf1;" horiz-adv-x="554" 
d="M409 725h53q-9 -101 -102 -101q-36 0 -91 23q-50 20 -71 20q-43 0 -51 -51h-53q12 102 101 102q31 0 85 -22q55 -21 77 -21q43 0 52 50zM295 496q203 0 203 -226v-270h-63v265q0 172 -148 172q-110 0 -159 -102v-335h-63v485h63v-66q63 77 167 77z" />
    <glyph glyph-name="ograve" unicode="&#xf2;" horiz-adv-x="546" 
d="M236 745l80 -153h-57l-113 153h90zM273 496q112 0 175.5 -70t63.5 -184t-63.5 -184t-175.5 -70t-175.5 70t-63.5 184t63.5 184t175.5 70zM273 437q-80 0 -126 -52.5t-46 -142.5t46 -142.5t126 -52.5t126.5 52.5t46.5 142.5t-46.5 142.5t-126.5 52.5z" />
    <glyph glyph-name="oacute" unicode="&#xf3;" horiz-adv-x="546" 
d="M284 592h-56l80 153h89zM273 496q112 0 175.5 -70t63.5 -184t-63.5 -184t-175.5 -70t-175.5 70t-63.5 184t63.5 184t175.5 70zM273 437q-80 0 -126 -52.5t-46 -142.5t46 -142.5t126 -52.5t126.5 52.5t46.5 142.5t-46.5 142.5t-126.5 52.5z" />
    <glyph glyph-name="ocircumflex" unicode="&#xf4;" horiz-adv-x="546" 
d="M445 602h-74l-99 102l-98 -102h-74l132 143h80zM273 496q112 0 175.5 -70t63.5 -184t-63.5 -184t-175.5 -70t-175.5 70t-63.5 184t63.5 184t175.5 70zM273 437q-80 0 -126 -52.5t-46 -142.5t46 -142.5t126 -52.5t126.5 52.5t46.5 142.5t-46.5 142.5t-126.5 52.5z" />
    <glyph glyph-name="otilde" unicode="&#xf5;" horiz-adv-x="546" 
d="M404 725h53q-9 -101 -102 -101q-36 0 -91 23q-50 20 -71 20q-43 0 -51 -51h-53q12 102 101 102q31 0 85 -22q55 -21 77 -21q43 0 52 50zM273 496q112 0 175.5 -70t63.5 -184t-63.5 -184t-175.5 -70t-175.5 70t-63.5 184t63.5 184t175.5 70zM273 437q-80 0 -126 -52.5
t-46 -142.5t46 -142.5t126 -52.5t126.5 52.5t46.5 142.5t-46.5 142.5t-126.5 52.5z" />
    <glyph glyph-name="odieresis" unicode="&#xf6;" horiz-adv-x="546" 
d="M179 724q46 0 46 -46t-46 -46q-20 0 -33 11.5t-13 34.5t13 34.5t33 11.5zM360 724q47 0 47 -46t-47 -46q-20 0 -33 11.5t-13 34.5t13 34.5t33 11.5zM273 496q112 0 175.5 -70t63.5 -184t-63.5 -184t-175.5 -70t-175.5 70t-63.5 184t63.5 184t175.5 70zM273 437
q-80 0 -126 -52.5t-46 -142.5t46 -142.5t126 -52.5t126.5 52.5t46.5 142.5t-46.5 142.5t-126.5 52.5z" />
    <glyph glyph-name="divide" unicode="&#xf7;" horiz-adv-x="599" 
d="M300 526q31 0 48.5 -18t17.5 -49t-17.5 -48.5t-48.5 -17.5t-49 17.5t-18 48.5t17.5 49t49.5 18zM555 223h-510v64h510v-64zM300 117q31 0 48.5 -17.5t17.5 -48.5t-17.5 -49t-48.5 -18q-32 0 -49.5 18t-17.5 49t18 48.5t49 17.5z" />
    <glyph glyph-name="oslash" unicode="&#xf8;" horiz-adv-x="549" 
d="M486 474l-36 -46q66 -69 66 -186q0 -114 -63.5 -184t-175.5 -70q-79 0 -138 38l-35 -44l-38 28l36 47q-64 70 -64 185q0 114 63.5 184t175.5 70q80 0 137 -37l33 43zM105 242q0 -83 38 -133l232 300q-42 28 -98 28q-80 0 -126 -52.5t-46 -142.5zM277 47q80 0 126.5 52.5
t46.5 142.5q0 83 -40 134l-233 -300q41 -29 100 -29z" />
    <glyph glyph-name="ugrave" unicode="&#xf9;" horiz-adv-x="544" 
d="M235 745l80 -153h-57l-113 153h90zM479 0h-63v64q-62 -75 -165 -75q-195 0 -195 226v270h63v-265q0 -172 140 -172q110 0 157 100v337h63v-485z" />
    <glyph glyph-name="uacute" unicode="&#xfa;" horiz-adv-x="544" 
d="M284 592h-56l80 153h89zM479 0h-63v64q-62 -75 -165 -75q-195 0 -195 226v270h63v-265q0 -172 140 -172q110 0 157 100v337h63v-485z" />
    <glyph glyph-name="ucircumflex" unicode="&#xfb;" horiz-adv-x="544" 
d="M445 602h-74l-99 102l-98 -102h-74l132 143h80zM479 0h-63v64q-62 -75 -165 -75q-195 0 -195 226v270h63v-265q0 -172 140 -172q110 0 157 100v337h63v-485z" />
    <glyph glyph-name="udieresis" unicode="&#xfc;" horiz-adv-x="544" 
d="M179 724q46 0 46 -46t-46 -46q-20 0 -33 11.5t-13 34.5t13 34.5t33 11.5zM360 724q47 0 47 -46t-47 -46q-20 0 -33 11.5t-13 34.5t13 34.5t33 11.5zM479 0h-63v64q-62 -75 -165 -75q-195 0 -195 226v270h63v-265q0 -172 140 -172q110 0 157 100v337h63v-485z" />
    <glyph glyph-name="yacute" unicode="&#xfd;" horiz-adv-x="515" 
d="M269 592h-56l80 153h89zM503 485l-313 -725h-69l113 249l-223 476h71l184 -402l167 402h70z" />
    <glyph glyph-name="thorn" unicode="&#xfe;" horiz-adv-x="555" 
d="M128 730v-302q50 70 157 70q108 0 171 -70t63 -185t-63 -185.5t-171 -70.5q-107 0 -157 70v-297h-63v970h63zM281 439q-54 0 -94.5 -26t-58.5 -73v-189q18 -51 58.5 -78t94.5 -27q80 0 126 52.5t46 144.5q0 91 -46 143.5t-126 52.5z" />
    <glyph glyph-name="ydieresis" unicode="&#xff;" horiz-adv-x="515" 
d="M164 632q-20 0 -33 11.5t-13 34.5t13 34.5t33 11.5q46 0 46 -46t-46 -46zM345 632q-20 0 -33 11.5t-13 34.5t13 34.5t33 11.5q47 0 47 -46t-47 -46zM503 485l-313 -725h-69l113 249l-223 476h71l184 -402l167 402h70z" />
    <glyph glyph-name="dotlessi" unicode="&#x131;" horiz-adv-x="193" 
d="M128 0h-63v485h63v-485z" />
    <glyph glyph-name="OE" unicode="&#x152;" horiz-adv-x="1105" 
d="M676 646v-243h342v-64h-342v-275h384v-64h-448v98q-78 -116 -239 -116q-148 0 -240 97t-92 276t92 276t240 97q161 0 239 -116v98h448v-64h-384zM375 46q85 0 147 45t90 128v272q-28 83 -90 128t-147 45q-121 0 -192.5 -81.5t-71.5 -227.5t71.5 -227.5t192.5 -81.5z" />
    <glyph glyph-name="oe" unicode="&#x153;" horiz-adv-x="941" 
d="M898 254q0 -16 -1 -27h-390q4 -84 51.5 -133t123.5 -49q105 0 159 88l51 -30q-64 -115 -209 -115t-205 119q-60 -119 -204 -119q-112 0 -175.5 70t-63.5 184t63.5 184t175.5 70q144 0 204 -119q27 56 78 87.5t118 31.5q104 0 164 -67.5t60 -174.5zM674 439
q-67 0 -110.5 -42.5t-53.5 -112.5h323q-8 72 -50.5 113.5t-108.5 41.5zM274 47q79 0 125.5 52.5t46.5 142.5t-46.5 142.5t-125.5 52.5q-80 0 -126 -52.5t-46 -142.5t46 -142.5t126 -52.5z" />
    <glyph glyph-name="florin" unicode="&#x192;" horiz-adv-x="427" 
d="M346 739q46 0 75 -31l-37 -47q-16 18 -38 18q-18 0 -33 -12t-19 -33l-27 -149h123l-11 -62h-122l-61 -341q-8 -48 -42 -74t-74 -26q-47 0 -75 30l36 48q17 -19 39 -19q18 0 32.5 12t18.5 33l60 337h-83l11 62h83l28 155q9 48 42.5 73.5t73.5 25.5z" />
    <glyph glyph-name="dotlessj" unicode="&#x237;" horiz-adv-x="193" 
d="M128 485v-584q-1 -79 -40.5 -114.5t-95.5 -35.5q-48 0 -87 27l23 51q29 -19 62 -19q32 0 53.5 21t21.5 64v590h63z" />
    <glyph glyph-name="circumflex" unicode="&#x2c6;" horiz-adv-x="395" 
d="M370 602h-74l-99 102l-98 -102h-74l132 143h80z" />
    <glyph glyph-name="caron" unicode="&#x2c7;" horiz-adv-x="395" 
d="M237 602h-80l-132 143h74l98 -102l99 102h74z" />
    <glyph glyph-name="breve" unicode="&#x2d8;" horiz-adv-x="382" 
d="M308 745h49q-16 -146 -165 -146q-73 0 -116.5 37t-50.5 109h49q17 -97 117 -97q99 0 117 97z" />
    <glyph glyph-name="dotaccent" unicode="&#x2d9;" horiz-adv-x="141" 
d="M71 725q20 0 33 -11.5t13 -34.5t-13 -35t-33 -12t-33 12t-13 35t13 34.5t33 11.5z" />
    <glyph glyph-name="ring" unicode="&#x2da;" horiz-adv-x="264" 
d="M133 755q50 0 78.5 -28.5t28.5 -76.5q0 -47 -28.5 -75.5t-78.5 -28.5t-79 28.5t-29 75.5q0 48 29 76.5t79 28.5zM132 718q-32 0 -49.5 -18t-17.5 -50q0 -31 17.5 -48t49.5 -17q31 0 49.5 17t18.5 48q0 32 -18.5 50t-49.5 18z" />
    <glyph glyph-name="tilde" unicode="&#x2dc;" horiz-adv-x="418" 
d="M340 725h53q-9 -101 -102 -101q-36 0 -91 23q-50 20 -71 20q-43 0 -51 -51h-53q12 102 101 102q31 0 85 -22q55 -21 77 -21q43 0 52 50z" />
    <glyph glyph-name="hungarumlaut" unicode="&#x2dd;" horiz-adv-x="368" 
d="M85 592h-57l80 153h90zM234 592h-57l80 153h90z" />
    <glyph glyph-name="Delta" unicode="&#x394;" horiz-adv-x="643" 
d="M632 0h-621l278 710h67zM101 61h440l-218 569z" />
    <glyph glyph-name="Omega" unicode="&#x3a9;" horiz-adv-x="759" 
d="M675 385q0 -112 -35.5 -198t-96.5 -128h131v-59h-245v59q79 16 128 101t49 217q0 146 -60.5 217.5t-166.5 71.5q-105 0 -165.5 -71.5t-60.5 -217.5q0 -133 48.5 -217.5t126.5 -100.5v-59h-244v59h132q-61 42 -96.5 128t-35.5 197q0 170 81 257t214 87q134 0 215 -87
t81 -256z" />
    <glyph glyph-name="pi" unicode="&#x3c0;" horiz-adv-x="611" 
d="M588 426h-116v-299q0 -39 18 -58.5t48 -19.5q18 0 30 4l12 -56q-20 -6 -45 -6q-54 0 -90 34t-36 96v305h-235v-426h-62v426h-89v59h565v-59z" />
    <glyph glyph-name="uni058F" unicode="&#x58f;" horiz-adv-x="619" 
d="M486 312v-96h100v-47h-100v-169h-70v169h-170v47h170v96h-170v47h170v114q0 90 -43.5 138.5t-116.5 48.5t-117 -48.5t-44 -138.5v-53h-70v53q0 119 64.5 185t166.5 66t166 -66t64 -185v-114h100v-47h-100z" />
    <glyph glyph-name="rupeesignbengali" unicode="&#x9f3;" horiz-adv-x="599" 
d="M361 410q78 0 126 -52.5t48 -138.5q0 -99 -63 -165.5t-170 -66.5q-93 0 -139 52.5t-46 141.5v304h-61v56h61v68q0 40 -15 57t-46 17v57q61 0 93.5 -33.5t32.5 -92.5v-73h255v-56h-255v-304q0 -68 28 -100.5t91 -32.5q78 0 123.5 47.5t45.5 125.5q0 62 -29.5 95t-80.5 33
q-47 0 -79 -31l-36 48q46 44 116 44z" />
    <glyph glyph-name="baht" unicode="&#xe3f;" horiz-adv-x="634" 
d="M465 354q115 -39 115 -167q0 -84 -56 -135.5t-155 -51.5h-36v-64h-49v64h-198v673h198v67h49v-67h17q106 0 157 -47.5t51 -117.5q0 -48 -24 -89t-69 -65zM155 379h129v230h-129v-230zM333 609v-230h8q73 0 110 31t37 88q0 111 -147 111h-8zM284 64v254h-129v-254h129z
M333 64h26q152 0 152 127t-162 127h-16v-254z" />
    <glyph glyph-name="uni17DB" unicode="&#x17db;" horiz-adv-x="441" 
d="M387 357h-80l-1 -369h-28q-101 0 -162 48.5t-61 126.5q0 51 28 83t79 32q48 0 81 -30v109h-178v57h178v74q-110 20 -153 124l48 65q45 -14 88 -14q54 0 111 27l23 -52q-67 -30 -132 -30q-38 0 -65 9l-5 -6q18 -37 55 -53.5t95 -22.5v-121h79v-57zM114 163q0 -47 32 -77
t97 -36v140q-26 36 -69 36q-60 0 -60 -63z" />
    <glyph glyph-name="endash" unicode="&#x2013;" horiz-adv-x="509" 
d="M505 242h-500v64h500v-64z" />
    <glyph glyph-name="emdash" unicode="&#x2014;" horiz-adv-x="1004" 
d="M999 242h-994v64h994v-64z" />
    <glyph glyph-name="quoteleft" unicode="&#x2018;" horiz-adv-x="262" 
d="M68 547q0 56 29 100.5t73 70.5l17 -24q-60 -45 -75 -112q60 0 60 -52q0 -53 -53 -53q-51 0 -51 70z" />
    <glyph glyph-name="quoteright" unicode="&#x2019;" horiz-adv-x="262" 
d="M194 629q0 -56 -29 -100.5t-73 -70.5l-17 24q60 45 75 112q-60 0 -60 52q0 53 53 53q51 0 51 -70z" />
    <glyph glyph-name="quotesinglbase" unicode="&#x201a;" horiz-adv-x="262" 
d="M194 35q0 -56 -29 -100.5t-73 -70.5l-17 24q60 45 75 112q-60 0 -60 52q0 53 53 53q51 0 51 -70z" />
    <glyph glyph-name="quotedblleft" unicode="&#x201c;" horiz-adv-x="424" 
d="M64 547q0 56 29.5 101t73.5 70l16 -24q-58 -43 -75 -112q61 0 61 -52q0 -53 -54 -53q-51 0 -51 70zM227 547q0 56 29 100.5t73 70.5l16 -24q-58 -43 -75 -112q61 0 61 -52q0 -53 -54 -53q-50 0 -50 70z" />
    <glyph glyph-name="quotedblright" unicode="&#x201d;" horiz-adv-x="424" 
d="M197 629q0 -56 -29 -100.5t-73 -70.5l-16 24q58 43 75 112q-61 0 -61 52q0 53 54 53q50 0 50 -70zM359 629q0 -57 -29 -101.5t-73 -69.5l-16 24q58 43 75 112q-61 0 -61 52q0 53 54 53q50 0 50 -70z" />
    <glyph glyph-name="quotedblbase" unicode="&#x201e;" horiz-adv-x="424" 
d="M194 35q0 -56 -29 -100.5t-73 -70.5l-17 24q60 45 75 112q-60 0 -60 52q0 53 53 53q51 0 51 -70zM356 35q0 -56 -29 -100.5t-73 -70.5l-17 24q60 45 75 112q-60 0 -60 52q0 53 53 53q51 0 51 -70z" />
    <glyph glyph-name="dagger" unicode="&#x2020;" horiz-adv-x="452" 
d="M257 426v-586h-62v586h-160v59h160v225h62v-225h160v-59h-160z" />
    <glyph glyph-name="daggerdbl" unicode="&#x2021;" horiz-adv-x="452" 
d="M257 124h160v-59h-160v-225h-62v225h-160v59h160v302h-160v59h160v225h62v-225h160v-59h-160v-302z" />
    <glyph glyph-name="bullet" unicode="&#x2022;" horiz-adv-x="291" 
d="M144 461q49 0 75.5 -27t26.5 -75q0 -47 -26.5 -73.5t-75.5 -26.5q-47 0 -73 26.5t-26 73.5q0 48 26 75t73 27z" />
    <glyph glyph-name="ellipsis" unicode="&#x2026;" horiz-adv-x="1004" 
d="M167 95q25 0 39 -14t14 -38q0 -25 -14 -39t-39 -14t-39 14t-14 39q0 24 14 38t39 14zM502 95q25 0 39 -14t14 -38q0 -25 -14 -39t-39 -14t-39 14t-14 39q0 24 14 38t39 14zM837 95q25 0 39 -14t14 -38q0 -25 -14 -39t-39 -14t-39 14t-14 39q0 24 14 38t39 14z" />
    <glyph glyph-name="perthousand" unicode="&#x2030;" horiz-adv-x="1070" 
d="M96 0l-52 23l600 688l53 -22zM190 710q66 0 103.5 -40t37.5 -106t-37.5 -106t-103.5 -40q-65 0 -102.5 40t-37.5 106t37.5 106t102.5 40zM190 660q-40 0 -63.5 -26t-23.5 -70t23.5 -70t63.5 -26t63.5 26t23.5 70t-23.5 70t-63.5 26zM553 292q65 0 102.5 -40t37.5 -106
t-37.5 -106t-102.5 -40q-66 0 -103.5 40t-37.5 106t37.5 106t103.5 40zM886 292q65 0 102.5 -40t37.5 -106t-37.5 -106t-102.5 -40q-66 0 -103.5 40t-37.5 106t37.5 106t103.5 40zM552 242q-40 0 -63 -26t-23 -70t23 -70t63 -26t64 26t24 70q0 43 -24 69.5t-64 26.5z
M886 242q-41 0 -64 -26t-23 -70q0 -45 23 -70.5t64 -25.5q40 0 63.5 26t23.5 70t-23.5 70t-63.5 26z" />
    <glyph glyph-name="guilsinglleft" unicode="&#x2039;" horiz-adv-x="325" 
d="M271 398l-172 -109l172 -106v-69l-216 145v57l216 151v-69z" />
    <glyph glyph-name="guilsinglright" unicode="&#x203a;" horiz-adv-x="325" 
d="M267 316v-57l-216 -145v69l172 106l-172 109v69z" />
    <glyph glyph-name="fraction" unicode="&#x2044;" horiz-adv-x="129" 
d="M-142 -40h-53l466 750h53z" />
    <glyph glyph-name="zerosuperior" unicode="&#x2070;" horiz-adv-x="380" 
d="M191 780q151 0 151 -229q0 -230 -151 -230q-152 0 -152 230q0 229 152 229zM191 722q-42 0 -63 -40.5t-21 -130.5q0 -91 21 -131.5t63 -40.5t62.5 40.5t20.5 131.5q0 171 -83 171z" />
    <glyph glyph-name="foursuperior" unicode="&#x2074;" horiz-adv-x="385" 
d="M343 426h-49v-96h-66v96h-201v54l196 291h71v-293h49v-52zM228 478v215l-144 -215h144z" />
    <glyph glyph-name="fivesuperior" unicode="&#x2075;" horiz-adv-x="383" 
d="M187 613q70 0 110 -38.5t40 -104.5q0 -68 -42 -108.5t-114 -40.5q-91 0 -144 74l47 39q45 -56 96 -56q42 0 65.5 24t23.5 67q0 86 -92 86q-48 0 -73 -29l-51 9l53 236h214v-57h-167l-27 -114q25 13 61 13z" />
    <glyph glyph-name="sixsuperior" unicode="&#x2076;" horiz-adv-x="383" 
d="M202 614q64 0 103.5 -40t39.5 -101q0 -69 -42.5 -110t-110.5 -41t-108.5 40t-40.5 108q0 52 21.5 105.5t46.5 91.5t75 104h75q-96 -122 -130 -179q31 22 71 22zM191 380q40 0 63 23.5t23 67.5q0 43 -22.5 66t-63.5 23t-63 -23t-22 -66q0 -44 22.5 -67.5t62.5 -23.5z" />
    <glyph glyph-name="sevensuperior" unicode="&#x2077;" horiz-adv-x="381" 
d="M335 771v-51l-158 -390h-71l160 378h-229v63h298z" />
    <glyph glyph-name="eightsuperior" unicode="&#x2078;" horiz-adv-x="384" 
d="M276 559q62 -33 62 -106q0 -58 -39.5 -95t-105.5 -37t-105.5 37t-39.5 95q0 73 62 106q-53 32 -53 96q0 54 37.5 89.5t98.5 35.5t98.5 -35.5t37.5 -89.5q0 -65 -53 -96zM193 723q-32 0 -51.5 -19.5t-19.5 -50.5t19.5 -50.5t51.5 -19.5q31 0 51 19.5t20 50.5t-20 50.5
t-51 19.5zM193 377q35 0 57 21.5t22 55.5t-22 55t-57 21t-57 -21t-22 -55t22 -55.5t57 -21.5z" />
    <glyph glyph-name="ninesuperior" unicode="&#x2079;" horiz-adv-x="383" 
d="M191 779q68 0 108 -40.5t40 -111.5q0 -50 -21.5 -105.5t-45.5 -92t-69 -99.5h-75q97 130 125 180q-30 -23 -74 -23q-64 0 -103 40t-39 102q0 68 42.5 109t111.5 41zM190 541q85 0 85 88q0 45 -22.5 68.5t-62.5 23.5t-63 -24t-23 -68q0 -42 22.5 -65t63.5 -23z" />
    <glyph glyph-name="colonsign" unicode="&#x20a1;" horiz-adv-x="716" 
d="M612 195l57 -33q-82 -166 -265 -177l-7 -49h-49l7 49q-33 2 -60 7l-8 -56h-49l10 69q-93 34 -146 118.5t-53 212.5q0 161 82 252t219 99l8 53h49l-8 -52q28 -1 60 -8l9 60h49l-11 -73q91 -32 148 -120l-53 -40q-42 63 -105 93l-82 -550q130 16 198 145zM390 625l-85 -569
q32 -7 60 -8l85 569q-32 7 -60 8zM119 336q0 -97 36.5 -164.5t102.5 -98.5l83 550q-103 -12 -162.5 -87t-59.5 -200z" />
    <glyph glyph-name="uni20A8" unicode="&#x20a8;" horiz-adv-x="1010" 
d="M557 491q0 -75 -37.5 -128t-110.5 -70l158 -293h-81l-149 286h-189v-286h-70v694h267q107 0 159.5 -57.5t52.5 -145.5zM148 350h190q149 0 149 142q0 137 -151 137h-188v-279zM803 278q38 -8 61 -16t49.5 -23t39.5 -40.5t13 -61.5q0 -69 -51 -109t-134 -40
q-121 0 -194 88l43 42q31 -37 66.5 -55t87.5 -18q119 0 119 86q0 18 -6.5 31.5t-14 21.5t-27 15t-30 10t-39 9t-39.5 9q-65 16 -102 45t-37 89q0 62 49 98.5t131 36.5q104 0 171 -67l-39 -45q-55 55 -138 55q-112 0 -112 -75q0 -27 18.5 -44.5t37.5 -23t69 -16.5
q2 -1 4 -1.5t4 -0.5z" />
    <glyph glyph-name="won" unicode="&#x20a9;" horiz-adv-x="873" 
d="M776 397l-33 -126h107v-47h-119l-59 -224h-80l-62 224h-185l-62 -224h-80l-59 224h-118v47h106l-33 126h-73v47h61l-61 232h74l57 -232h187l55 197h77l55 -197h187l57 232h74l-61 -232h62v-47h-74zM406 444h63l-32 114zM199 271h97l35 126h-163zM517 271l-35 126h-89
l-35 -126h159zM707 397h-163l35 -126h98zM283 224h-73l34 -139zM664 224h-73l39 -141z" />
    <glyph glyph-name="uni20AA" unicode="&#x20aa;" horiz-adv-x="699" 
d="M55 676h221q93 0 142.5 -52.5t49.5 -143.5v-285h-66v285q0 64 -31.5 99.5t-94.5 35.5h-156v-615h-65v676zM644 676v-480q0 -91 -49.5 -143.5t-142.5 -52.5h-223v483h65v-422h158q63 0 95 35.5t32 99.5v480h65z" />
    <glyph glyph-name="dong" unicode="&#x20ab;" horiz-adv-x="569" 
d="M558 592h-69v-592h-63v56q-51 -70 -156 -70q-108 0 -171.5 70.5t-63.5 185.5t63.5 185.5t171.5 70.5q105 0 156 -70v164h-240v47h240v91h63v-91h69v-47zM426 145v189q-18 51 -58.5 77.5t-94.5 26.5q-80 0 -126 -52.5t-46 -143.5t46.5 -143.5t126.5 -52.5q54 0 94 26
t58 73zM43 -77h446v-47h-446v47z" />
    <glyph glyph-name="Euro" unicode="&#x20ac;" horiz-adv-x="549" 
d="M472 123l47 -35q-67 -103 -201 -103q-113 0 -167 60t-67 184h-54v47h50q-1 20 -1 63l1 43h-50v47h52q11 128 61.5 194.5t162.5 66.5q153 0 200 -123l-52 -33q-44 97 -144 97q-83 0 -119.5 -51.5t-43.5 -150.5h260v-47h-262l-1 -50q0 -38 1 -56h262v-47h-259
q8 -92 46.5 -138.5t127.5 -46.5q53 0 87.5 20t62.5 59z" />
    <glyph glyph-name="uni20AD" unicode="&#x20ad;" horiz-adv-x="607" 
d="M180 316h-24v-316h-70v316h-70v57h70v303h70v-303h27l314 303h94l-315 -303h299v-57h-306l328 -316h-94z" />
    <glyph glyph-name="uni20AE" unicode="&#x20ae;" horiz-adv-x="625" 
d="M348 612v-223l157 55v-52l-157 -55v-96l157 55v-52l-157 -55v-189h-70v170l-157 -56v52l157 56v96l-157 -56v52l157 56v242h-258v64h586v-64h-258z" />
    <glyph glyph-name="uni20B2" unicode="&#x20b2;" horiz-adv-x="731" 
d="M684 337v-22q0 -87 -22.5 -151t-63 -101t-89.5 -55t-108 -21v-51h-49v52q-137 9 -220 100t-83 249q0 160 83 250.5t220 99.5v53h49v-52q182 -8 264 -138l-57 -40q-71 108 -207 115v-288h283zM119 337q0 -126 63 -200.5t170 -84.5v572q-107 -10 -170 -85t-63 -202z
M401 273v-222q95 5 149.5 61.5t61.5 160.5h-211z" />
    <glyph glyph-name="hryvnia" unicode="&#x20b4;" horiz-adv-x="662" 
d="M613 422h-102q-42 -47 -156 -76q-57 -14 -98 -30h356v-47h-417q-26 -28 -26 -76q0 -69 45 -105.5t119 -36.5q70 0 115.5 30.5t80.5 92.5l57 -32q-70 -155 -254 -155q-106 0 -169.5 54.5t-63.5 153.5q0 41 11 74h-61v47h89q28 33 73.5 52t111.5 35q59 15 69 19h-343v47
h412q23 26 23 70q0 59 -40 91t-110 32q-56 0 -96 -20.5t-74 -67.5l-54 42q74 110 228 110q100 0 157.5 -48.5t57.5 -138.5q0 -39 -13 -70h72v-47z" />
    <glyph glyph-name="uni20B5" unicode="&#x20b5;" horiz-adv-x="716" 
d="M612 195l57 -33q-81 -166 -266 -177v-49h-49v49q-138 7 -221.5 98t-83.5 253t82.5 252.5t222.5 98.5v53h49v-53q166 -8 251 -140l-53 -40q-73 108 -198 117v-575q138 11 209 146zM119 336q0 -129 63.5 -204t171.5 -83v575q-108 -8 -171.5 -83.5t-63.5 -204.5z" />
    <glyph glyph-name="uni20B8" unicode="&#x20b8;" 
d="M523 612h-486v64h486v-64zM523 466h-208v-466h-70v466h-208v64h486v-64z" />
    <glyph glyph-name="uni20B9" unicode="&#x20b9;" 
d="M496 617h-153q53 -41 64 -114h89v-56h-88q-5 -58 -40 -99.5t-96 -58.5l154 -289h-81l-144 278h-14h-122v59h115q142 0 159 110h-274v56h274q-16 114 -161 114h-113v59h431v-59z" />
    <glyph glyph-name="uni20BA" unicode="&#x20ba;" 
d="M440 304h70q0 -153 -84.5 -228.5t-235.5 -75.5h-70v323l-85 -33v52l85 33v97l-85 -33v52l85 33v152h70v-126l185 71v-52l-185 -71v-97l185 71v-52l-185 -71v-285q250 0 250 240z" />
    <glyph glyph-name="uni20BD" unicode="&#x20bd;" horiz-adv-x="600" 
d="M176 260v-89h277v-57h-277v-114h-70v114h-70v57h70v89h-70v59h70v357h233q117 0 172 -55t55 -148q0 -99 -57.5 -156t-169.5 -57h-163zM176 319h155q165 0 165 154q0 72 -39 108t-128 36h-153v-298z" />
    <glyph glyph-name="trademark" unicode="&#x2122;" horiz-adv-x="812" 
d="M33 710h320v-48h-133v-344h-54v344h-133v48zM731 318l-5 310l-124 -294h-42l-124 291l-4 -307h-48l7 392h63l128 -312l127 312h62l9 -392h-49z" />
    <glyph glyph-name="Ohm" unicode="&#x2126;" horiz-adv-x="757" 
d="M379 664q-110 0 -176 -64.5t-66 -182.5q0 -103 50.5 -165t134.5 -67v-185h-277v64h216v70q-90 24 -142 98t-52 185q0 147 86 229t226 82q139 0 225 -82t86 -229q0 -111 -52 -185t-142 -98v-70h217v-64h-277v185q83 5 133.5 67t50.5 165q0 118 -65.5 182.5t-175.5 64.5z
" />
    <glyph glyph-name="partialdiff" unicode="&#x2202;" horiz-adv-x="557" 
d="M260 743q120 0 181.5 -99t61.5 -288q0 -175 -64.5 -273t-184.5 -98q-94 0 -145 59.5t-51 163.5q0 116 60 191t164 75q118 0 161 -103q-9 313 -184 313q-59 0 -95.5 -35.5t-46.5 -99.5l-62 7q13 82 65 134.5t140 52.5zM253 43q78 0 127.5 58t48.5 152q-1 76 -42 120
t-105 44q-74 0 -118 -57t-44 -154q0 -82 35 -122.5t98 -40.5z" />
    <glyph glyph-name="increment" unicode="&#x2206;" horiz-adv-x="644" 
d="M627 0h-610l267 710h73zM115 63h412l-206 563z" />
    <glyph glyph-name="product" unicode="&#x220f;" horiz-adv-x="737" 
d="M652 -170h-58v846h-451v-846h-57v900h566v-900z" />
    <glyph glyph-name="summation" unicode="&#x2211;" horiz-adv-x="737" 
d="M652 676h-499l231 -396l-231 -396h499v-54h-566v54l230 396l-230 396v54h566v-54z" />
    <glyph glyph-name="minus" unicode="&#x2212;" horiz-adv-x="599" 
d="M555 223h-510v64h510v-64z" />
    <glyph glyph-name="radical" unicode="&#x221a;" horiz-adv-x="588" 
d="M572 730v-54h-79l-193 -890h-47l-242 452l49 29l202 -379l179 842h131z" />
    <glyph glyph-name="infinity" unicode="&#x221e;" horiz-adv-x="937" 
d="M711 462q89 0 140 -54t51 -153t-51 -153t-140 -54q-73 0 -129 40t-113 116q-58 -76 -113.5 -116t-128.5 -40q-90 0 -141 54t-51 153t51 153t141 54q73 0 128.5 -40t113.5 -116q57 76 113 116t129 40zM229 106q54 0 96 33.5t106 115.5q-64 82 -106 115.5t-96 33.5
q-132 0 -132 -149t132 -149zM709 106q62 0 96.5 37t34.5 112t-34.5 112t-96.5 37q-55 0 -97 -33t-106 -116q64 -83 106 -116t97 -33z" />
    <glyph glyph-name="integral" unicode="&#x222b;" horiz-adv-x="349" 
d="M244 739q40 0 70 -27l-28 -46q-22 17 -40 17q-16 0 -28 -11.5t-12 -31.5v-791q0 -50 -30 -77t-71 -27q-40 0 -70 27l28 47q19 -17 40 -17q16 0 28 11t12 31v791q0 50 30 77t71 27z" />
    <glyph glyph-name="approxequal" unicode="&#x2248;" horiz-adv-x="599" 
d="M196 425q46 0 111.5 -35.5t101.5 -35.5q37 0 60 18.5t28 50.5h62q-5 -56 -47.5 -94.5t-108.5 -38.5q-46 0 -111.5 35.5t-101.5 35.5t-59.5 -18.5t-28.5 -50.5h-61q5 55 47 94t108 39zM196 215q46 0 111.5 -35.5t101.5 -35.5q37 0 60 18.5t28 50.5h62q-5 -56 -47.5 -94.5
t-108.5 -38.5q-46 0 -111.5 35.5t-101.5 35.5t-59.5 -18.5t-28.5 -50.5h-61q5 55 47 94t108 39z" />
    <glyph glyph-name="notequal" unicode="&#x2260;" horiz-adv-x="599" 
d="M359 330l-70 -150h269v-64h-298l-49 -106l-48 20l40 86h-155v64h184l69 150h-253v64h283l48 104l48 -20l-39 -84h170v-64h-199z" />
    <glyph glyph-name="lessequal" unicode="&#x2264;" horiz-adv-x="599" 
d="M551 458l-418 -128l418 -129v-67l-510 164v64l510 163v-67zM41 64h510v-64h-510v64z" />
    <glyph glyph-name="greaterequal" unicode="&#x2265;" horiz-adv-x="599" 
d="M555 362v-64l-510 -164v67l417 129l-417 128v67zM45 64h510v-64h-510v64z" />
    <glyph glyph-name="zero.lf" horiz-adv-x="569" 
d="M289 690q111 0 168 -89.5t57 -262.5t-57 -262.5t-168 -89.5t-168 89.5t-57 262.5t57 262.5t168 89.5zM289 626q-78 0 -116 -69.5t-38 -218.5t38 -218.5t116 -69.5t116 69.5t38 218.5t-38 218.5t-116 69.5z" />
    <glyph glyph-name="one.lf" horiz-adv-x="416" 
d="M253 63h123v-63h-314v63h123v506q-38 -61 -121 -92l-19 62q47 19 87.5 55t63.5 82h57v-613z" />
    <glyph glyph-name="two.lf" horiz-adv-x="548" 
d="M486 63v-63h-443v48q60 65 132.5 140.5t104.5 109.5t65 75t44 69t11 60q0 57 -38.5 90.5t-104.5 33.5q-51 0 -88.5 -21.5t-69.5 -78.5l-53 37q64 127 219 127q95 0 150.5 -50.5t55.5 -134.5q0 -42 -13.5 -80t-47.5 -81t-65 -76t-93.5 -96t-105.5 -109h340z" />
    <glyph glyph-name="three.lf" horiz-adv-x="523" 
d="M350 358q57 -19 90.5 -66t33.5 -112q0 -87 -58.5 -140.5t-159.5 -53.5q-157 0 -223 139l55 38q54 -113 167 -113q69 0 108.5 36.5t39.5 99.5q0 132 -170 132h-51v63h37q78 0 121.5 33t43.5 93q0 54 -36.5 86.5t-101.5 32.5q-90 0 -144 -88l-50 42q59 110 196 110
q95 0 150.5 -50.5t55.5 -128.5q0 -50 -26 -91t-78 -62z" />
    <glyph glyph-name="four.lf" horiz-adv-x="540" 
d="M501 158h-73v-158h-68v158h-319v71l305 447h82v-456h73v-62zM360 220v377l-255 -377h255z" />
    <glyph glyph-name="five.lf" horiz-adv-x="537" 
d="M262 428q109 0 167.5 -57t58.5 -159q0 -104 -61 -165t-166 -61q-132 0 -214 109l50 43q73 -88 165 -88q72 0 113.5 42.5t41.5 119.5q0 153 -165 153q-84 0 -126 -48l-54 10l78 349h312v-63h-263l-49 -213q44 28 112 28z" />
    <glyph glyph-name="six.lf" horiz-adv-x="541" 
d="M291 433q97 0 154.5 -60.5t57.5 -155.5q0 -104 -61.5 -166.5t-160.5 -62.5q-103 0 -162.5 60t-59.5 164q0 77 32.5 158t64.5 128.5t114 155.5q10 15 16 22h81q-156 -196 -204 -287q51 44 128 44zM278 52q71 0 112.5 42.5t41.5 120.5q0 75 -40 115t-114 40
q-72 0 -111.5 -40t-39.5 -115q0 -78 40.5 -120.5t110.5 -42.5z" />
    <glyph glyph-name="seven.lf" horiz-adv-x="512" 
d="M477 676v-52l-253 -624h-81l255 608h-364v68h443z" />
    <glyph glyph-name="eight.lf" horiz-adv-x="547" 
d="M388 352q103 -49 103 -170q0 -87 -57.5 -141.5t-155.5 -54.5t-155.5 54.5t-57.5 141.5q0 121 102 170q-88 46 -88 152q0 82 54 134t145 52q90 0 144.5 -52t54.5 -134q0 -107 -89 -152zM278 627q-57 0 -93 -35t-36 -91t35.5 -90t93.5 -34q56 0 92.5 34.5t36.5 89.5
q0 56 -36.5 91t-92.5 35zM278 49q63 0 103 37.5t40 97.5t-40 97.5t-103 37.5q-64 0 -104 -37.5t-40 -97.5q0 -59 40 -97t104 -38z" />
    <glyph glyph-name="nine.lf" horiz-adv-x="541" 
d="M274 688q100 0 158.5 -61t58.5 -169q0 -55 -14.5 -110t-45 -112.5t-57.5 -100t-70 -106.5q-13 -19 -20 -29h-81q135 190 183 287q-50 -44 -129 -44q-96 0 -153 60.5t-57 158.5q0 102 62 164t165 62zM271 306q73 0 112.5 40.5t39.5 115.5q0 78 -41 120t-111 42
t-111.5 -42.5t-41.5 -119.5q0 -75 40 -115.5t113 -40.5z" />
    <glyph glyph-name="zero.tf" 
d="M280 690q111 0 167.5 -89.5t56.5 -262.5t-56.5 -262.5t-167.5 -89.5t-168 89.5t-57 262.5t57 262.5t168 89.5zM280 626q-78 0 -116.5 -70t-38.5 -218t38.5 -218t116.5 -70q77 0 115.5 70t38.5 218t-38.5 218t-115.5 70z" />
    <glyph glyph-name="one.tf" 
d="M323 63h123v-63h-313v63h122v506q-38 -61 -121 -92l-18 62q102 43 150 137h57v-613z" />
    <glyph glyph-name="two.tf" 
d="M493 63v-63h-442v48q60 65 132.5 140.5t104.5 109.5t65 75t44 69t11 60q0 57 -38.5 90.5t-104.5 33.5q-51 0 -88.5 -21.5t-70.5 -78.5l-52 37q64 127 218 127q96 0 151 -50.5t55 -134.5q0 -42 -13.5 -80t-47.5 -81t-65 -76t-93.5 -96t-105.5 -109h340z" />
    <glyph glyph-name="three.tf" 
d="M358 358q57 -19 90.5 -65.5t33.5 -112.5q0 -87 -58.5 -140.5t-158.5 -53.5q-157 0 -223 139l54 38q56 -113 168 -113q69 0 108 36.5t39 99.5q0 132 -170 132h-51v63h37q78 0 121.5 33t43.5 93q0 54 -36.5 86.5t-101.5 32.5q-89 0 -143 -88l-50 42q59 110 196 110
q95 0 150 -50.5t55 -128.5q0 -50 -26 -91t-78 -62z" />
    <glyph glyph-name="four.tf" 
d="M497 158h-73v-158h-68v158h-320v71l306 447h82v-456h73v-62zM356 220v378l-255 -378h255z" />
    <glyph glyph-name="five.tf" 
d="M267 428q109 0 167 -57t58 -159q0 -104 -60.5 -165t-165.5 -61q-132 0 -214 109l50 43q73 -88 165 -88q72 0 113 42.5t41 119.5q0 153 -164 153q-84 0 -126 -48l-54 10l78 349h311v-63h-262l-49 -213q44 28 112 28z" />
    <glyph glyph-name="six.tf" 
d="M292 433q97 0 154.5 -60.5t57.5 -155.5q0 -104 -61.5 -166.5t-160.5 -62.5q-103 0 -163 60t-60 164q0 77 32.5 158t64.5 128.5t114 155.5q10 15 16 22h81q-159 -204 -202 -287q48 44 127 44zM279 52q71 0 112.5 42.5t41.5 120.5q0 75 -40 115t-114 40q-72 0 -112 -40
t-40 -115q0 -78 41 -120.5t111 -42.5z" />
    <glyph glyph-name="seven.tf" 
d="M494 676v-52l-254 -624h-80l255 608h-365v68h444z" />
    <glyph glyph-name="eight.tf" 
d="M390 352q103 -49 103 -170q0 -87 -57.5 -141.5t-155.5 -54.5t-155.5 54.5t-57.5 141.5q0 121 102 170q-88 46 -88 152q0 82 54 134t145 52q90 0 144.5 -52t54.5 -134q0 -107 -89 -152zM280 627q-57 0 -93 -35t-36 -91t35.5 -90t93.5 -34q56 0 92.5 34.5t36.5 89.5
q0 56 -36.5 91t-92.5 35zM280 49q63 0 103 37.5t40 97.5t-40 97.5t-103 37.5q-64 0 -104 -37.5t-40 -97.5q0 -59 40 -97t104 -38z" />
    <glyph glyph-name="nine.tf" 
d="M278 688q101 0 159.5 -61t58.5 -169q0 -24 -3.5 -49.5t-7.5 -46t-15.5 -49t-17 -44.5t-23 -47t-24 -43t-29 -46.5t-27.5 -42.5t-31 -46.5t-30 -43.5h-80q135 190 183 287q-50 -44 -129 -44q-96 0 -153.5 60.5t-57.5 158.5q0 102 62.5 164t164.5 62zM276 306
q73 0 112.5 40.5t39.5 115.5q0 78 -41 120t-111 42q-71 0 -112.5 -42.5t-41.5 -119.5q0 -75 40.5 -115.5t113.5 -40.5z" />
    <glyph glyph-name="zero.dnom" horiz-adv-x="380" 
d="M190 450q151 0 151 -229q0 -230 -151 -230q-152 0 -152 230q0 229 152 229zM190 392q-42 0 -63 -40.5t-21 -130.5q0 -91 21 -131.5t63 -40.5t62.5 40.5t20.5 131.5q0 171 -83 171z" />
    <glyph glyph-name="one.dnom" horiz-adv-x="337" 
d="M204 56h81v-56h-228v56h82v295q-24 -36 -75 -56l-19 54q68 31 100 92h59v-385z" />
    <glyph glyph-name="two.dnom" horiz-adv-x="384" 
d="M337 56v-56h-297v44q37 40 81 86t64 66.5t40.5 45.5t27 42t6.5 36q0 33 -21.5 52.5t-58.5 19.5q-63 0 -101 -59l-41 36q45 81 148 81q66 0 104 -34.5t38 -91.5q0 -26 -8 -50t-29 -50.5t-39 -46t-56 -57.5t-62 -64h204z" />
    <glyph glyph-name="three.dnom" horiz-adv-x="386" 
d="M257 233q75 -29 75 -111q0 -59 -40 -95t-110 -36q-109 0 -153 94l50 35q33 -71 103 -71q38 0 60 20.5t22 55.5q0 73 -97 73h-38v57h29q45 0 69 18.5t24 52.5q0 30 -19.5 48t-55.5 18q-53 0 -90 -56l-44 38q40 76 135 76q66 0 104.5 -34.5t38.5 -86.5q0 -67 -63 -96z" />
    <glyph glyph-name="four.dnom" horiz-adv-x="385" 
d="M342 96h-49v-96h-66v96h-201v54l196 291h71v-293h49v-52zM227 148v215l-144 -215h144z" />
    <glyph glyph-name="five.dnom" horiz-adv-x="383" 
d="M186 283q70 0 110 -38.5t40 -104.5q0 -68 -42 -108.5t-114 -40.5q-91 0 -144 74l47 39q45 -56 96 -56q42 0 65.5 24t23.5 67q0 86 -92 86q-48 0 -73 -29l-51 9l53 236h214v-57h-167l-27 -114q25 13 61 13z" />
    <glyph glyph-name="six.dnom" horiz-adv-x="383" 
d="M201 284q64 0 103.5 -40t39.5 -101q0 -69 -42.5 -110t-110.5 -41t-108.5 40t-40.5 108q0 52 21.5 105.5t46.5 91.5t75 104h75q-96 -122 -130 -179q31 22 71 22zM190 50q40 0 63 23.5t23 67.5q0 43 -22 66t-64 23q-41 0 -63 -23t-22 -66q0 -44 22.5 -67.5t62.5 -23.5z" />
    <glyph glyph-name="seven.dnom" horiz-adv-x="381" 
d="M334 441v-51l-158 -390h-71l160 378h-229v63h298z" />
    <glyph glyph-name="eight.dnom" horiz-adv-x="384" 
d="M275 229q62 -33 62 -106q0 -58 -39.5 -95t-105.5 -37t-105.5 37t-39.5 95q0 73 62 106q-53 32 -53 96q0 54 37.5 89.5t98.5 35.5t98.5 -35.5t37.5 -89.5q0 -65 -53 -96zM192 393q-32 0 -51.5 -19.5t-19.5 -50.5t19.5 -50.5t51.5 -19.5q31 0 51 19.5t20 50.5t-20 50.5
t-51 19.5zM192 47q35 0 57 21.5t22 55.5t-22 55t-57 21t-57 -21t-22 -55t22 -55.5t57 -21.5z" />
    <glyph glyph-name="nine.dnom" horiz-adv-x="383" 
d="M190 449q68 0 108 -40.5t40 -111.5q0 -50 -21.5 -105.5t-45.5 -92t-69 -99.5h-75q97 131 124 180q-29 -23 -73 -23q-64 0 -103 40t-39 102q0 68 42.5 109t111.5 41zM103 299q0 -42 22.5 -65t63.5 -23q85 0 85 88q0 45 -22.5 68.5t-62.5 23.5t-63 -24t-23 -68z" />
    <glyph glyph-name="zero.numr" horiz-adv-x="380" 
d="M191 720q151 0 151 -229q0 -230 -151 -230q-152 0 -152 230q0 229 152 229zM191 662q-42 0 -63 -40.5t-21 -130.5q0 -91 21 -131.5t63 -40.5t62.5 40.5t20.5 131.5q0 171 -83 171z" />
    <glyph glyph-name="one.numr" horiz-adv-x="333" 
d="M205 326h81v-56h-228v56h82v295q-24 -36 -75 -56l-19 54q68 31 100 92h59v-385z" />
    <glyph glyph-name="two.numr" horiz-adv-x="384" 
d="M338 326v-56h-297v44q37 40 81 86t64 66.5t40.5 45.5t27 42t6.5 36q0 33 -21.5 52.5t-58.5 19.5q-63 0 -101 -59l-41 36q45 81 148 81q66 0 104 -34.5t38 -91.5q0 -26 -8 -50t-29 -50.5t-39 -46t-56 -57.5t-62 -64h204z" />
    <glyph glyph-name="three.numr" horiz-adv-x="386" 
d="M258 503q75 -29 75 -111q0 -59 -40 -95t-110 -36q-109 0 -153 94l50 35q33 -71 103 -71q38 0 60 20.5t22 55.5q0 73 -97 73h-38v57h29q45 0 69 18.5t24 52.5q0 30 -19.5 48t-55.5 18q-53 0 -90 -56l-44 38q40 76 135 76q66 0 104 -34.5t38 -86.5q0 -67 -62 -96z" />
    <glyph glyph-name="four.numr" horiz-adv-x="385" 
d="M343 366h-49v-96h-66v96h-201v54l196 291h71v-293h49v-52zM228 418v215l-144 -215h144z" />
    <glyph glyph-name="five.numr" horiz-adv-x="383" 
d="M187 553q70 0 110 -38.5t40 -104.5q0 -68 -42 -108.5t-114 -40.5q-91 0 -144 74l47 39q45 -56 96 -56q42 0 65.5 24t23.5 67q0 86 -92 86q-48 0 -73 -29l-51 9l53 236h214v-57h-167l-27 -114q25 13 61 13z" />
    <glyph glyph-name="six.numr" horiz-adv-x="383" 
d="M202 554q64 0 103.5 -40t39.5 -101q0 -69 -42.5 -110t-110.5 -41t-108.5 40t-40.5 108q0 52 21.5 105.5t46.5 91.5t75 104h75q-96 -122 -130 -179q31 22 71 22zM191 320q40 0 63 23.5t23 67.5q0 43 -22.5 66t-63.5 23t-63 -23t-22 -66q0 -44 22.5 -67.5t62.5 -23.5z" />
    <glyph glyph-name="seven.numr" horiz-adv-x="381" 
d="M335 711v-51l-158 -390h-71l160 378h-229v63h298z" />
    <glyph glyph-name="eight.numr" horiz-adv-x="384" 
d="M276 499q62 -33 62 -106q0 -58 -39.5 -95t-105.5 -37t-105.5 37t-39.5 95q0 73 62 106q-53 32 -53 96q0 54 37.5 89.5t98.5 35.5t98.5 -35.5t37.5 -89.5q0 -65 -53 -96zM193 663q-32 0 -51.5 -19.5t-19.5 -50.5t19.5 -50.5t51.5 -19.5q31 0 51 19.5t20 50.5t-20 50.5
t-51 19.5zM193 317q35 0 57 21.5t22 55.5t-22 55t-57 21t-57 -21t-22 -55t22 -55.5t57 -21.5z" />
    <glyph glyph-name="nine.numr" horiz-adv-x="383" 
d="M191 719q68 0 108 -40.5t40 -111.5q0 -50 -21.5 -105.5t-45.5 -92t-69 -99.5h-75q97 130 125 180q-30 -23 -74 -23q-64 0 -103 40t-39 102q0 68 42.5 109t111.5 41zM190 481q85 0 85 88q0 45 -22.5 68.5t-62.5 23.5t-63 -24t-23 -68q0 -42 22.5 -65t63.5 -23z" />
    <glyph glyph-name="acute.case" horiz-adv-x="219" 
d="M86 772h-61l80 153h94z" />
    <glyph glyph-name="breve.case" horiz-adv-x="382" 
d="M308 925h49q-16 -146 -165 -146q-73 0 -116.5 37t-50.5 109h49q17 -97 117 -97q99 0 117 97z" />
    <glyph glyph-name="caron.case" horiz-adv-x="395" 
d="M242 782h-90l-132 143h79l98 -102l99 102h79z" />
    <glyph glyph-name="circumflex.case" horiz-adv-x="395" 
d="M375 782h-79l-99 102l-98 -102h-79l132 143h90z" />
    <glyph glyph-name="dieresis.case" horiz-adv-x="322" 
d="M70 900q20 0 33 -11.5t13 -34.5q0 -24 -13 -35.5t-33 -11.5q-46 0 -46 47q0 23 13 34.5t33 11.5zM251 900q20 0 33 -11.5t13 -34.5q0 -24 -13 -35.5t-33 -11.5q-46 0 -46 47q0 23 13 34.5t33 11.5z" />
    <glyph glyph-name="dotaccent.case" horiz-adv-x="141" 
d="M71 900q20 0 33 -11.5t13 -34.5t-13 -34.5t-33 -11.5q-46 0 -46 46q0 23 13 34.5t33 11.5z" />
    <glyph glyph-name="grave.case" horiz-adv-x="219" 
d="M114 925l80 -153h-61l-113 153h94z" />
    <glyph glyph-name="hungarumlaut.case" horiz-adv-x="368" 
d="M86 772h-61l80 153h94zM240 772h-61l80 153h94z" />
    <glyph glyph-name="macron.case" horiz-adv-x="349" 
d="M325 841h-300v49h300v-49z" />
    <glyph glyph-name="ring.case" horiz-adv-x="264" 
d="M133 955q50 0 78.5 -28.5t28.5 -76.5q0 -47 -28.5 -75.5t-78.5 -28.5t-79 28.5t-29 75.5q0 48 29 76.5t79 28.5zM132 917q-32 0 -49.5 -17.5t-17.5 -49.5t17.5 -49t49.5 -17q31 0 49.5 17t18.5 49q0 31 -18.5 49t-49.5 18z" />
    <glyph glyph-name="tilde.case" horiz-adv-x="418" 
d="M340 915h53q-4 -51 -31 -76.5t-71 -25.5q-37 0 -96 26q-48 18 -66 18q-43 0 -51 -51h-53q12 102 101 102q35 0 80 -20q62 -24 82 -24q43 0 52 51z" />
    </font>
</defs>
</svg>
