<?xml version="1.0" standalone="no"?>
<!DOCTYPE svg PUBLIC "-//W3C//DTD SVG 1.1//EN" "http://www.w3.org/Graphics/SVG/1.1/DTD/svg11.dtd" >
<svg>
<metadata>
Created by FontForge 20120731 at Tue Oct 18 12:52:37 2016
 By ,,,
Copyright (c) 2003 by David Buck / SparkyType. All rights reserved.
</metadata>
<defs>
<font id="Billy-Bold" horiz-adv-x="704" >
  <font-face 
    font-family="Billy"
    font-weight="700"
    font-stretch="normal"
    units-per-em="1000"
    panose-1="2 0 8 3 3 0 0 2 0 4"
    ascent="750"
    descent="-250"
    x-height="477"
    cap-height="717"
    bbox="-165 -301 1101 961"
    underline-thickness="80"
    underline-position="190"
    unicode-range="U+0020-FB02"
  />
<missing-glyph horiz-adv-x="265" 
 />
    <glyph glyph-name="fi" unicode="fi" horiz-adv-x="594" 
d="M576 -8h-190q-20 172 -15 310l-99 -2q1 -107 28 -295l-189 -34q-3 30 -28 323l-70 -6l-11 137l68 2q-7 52 -7 90q0 112 61 184.5t184 72.5q106 0 178.5 -52t72.5 -136q0 -54 -30.5 -85t-79.5 -31q-41 0 -65.5 22.5t-24.5 56.5q0 12 4.5 26.5t4.5 19.5q0 17 -16.5 25
t-34.5 8q-60 0 -60 -99q0 -16 2 -49t2 -39q17 0 74 0.5t83 1.5t70.5 5.5t81.5 12.5q0 -5 -0.5 -53t-0.5 -100.5v-114.5t2 -116.5t5 -84.5z" />
    <glyph glyph-name="fl" unicode="fl" horiz-adv-x="585" 
d="M582 -43l-191 -24q-6 19 -14.5 45.5t-10 30t-4 41.5t-2.5 78.5v142.5q0 233 -7.5 282.5t-47.5 49.5t-50.5 -26.5t-0.5 -103.5h1q1 0 20.5 -0.5t34.5 -0.5h16v-173h-57q0 -94 28 -297l-189 -35q-8 62 -17.5 182.5t-11.5 141.5l-69 -5l-11 137l67 2q-18 69 -11.5 132
t30 111t74 77t120.5 29q111 0 191.5 -62t80.5 -150q0 -155 0.5 -227t0.5 -135t3.5 -91t5 -45t9.5 -50.5t12 -56.5z" />
    <glyph glyph-name=".notdef" horiz-adv-x="265" 
 />
    <glyph glyph-name=".null" horiz-adv-x="0" 
 />
    <glyph glyph-name="nonmarkingreturn" horiz-adv-x="333" 
 />
    <glyph glyph-name="space" unicode=" " horiz-adv-x="265" 
 />
    <glyph glyph-name="exclam" unicode="!" horiz-adv-x="257" 
d="M218 202h-163l-22 557l200 -6zM246 66q0 -46 -32.5 -83t-79.5 -37h-4q-44 0 -78.5 29.5t-34.5 77.5v2q0 47 28.5 81.5t80.5 34.5q50 0 84.5 -30.5t35.5 -74.5z" />
    <glyph glyph-name="quotedbl" unicode="&#x22;" horiz-adv-x="498" 
d="M210 475l-156 -4l-12 243l171 5zM452 714l-9 -227l-162 -10l-8 242z" />
    <glyph glyph-name="numbersign" unicode="#" horiz-adv-x="623" 
d="M602 501l-7 -78h-106l-25 -284l104 -1l-7 -78h-103l-24 -247h-78l23 250l-152 1l-23 -255h-78l23 258l-128 1l7 78l130 -1l23 278h-123l8 78h122l20 222l77 2l-20 -224h153l20 220h78l-21 -220h107zM411 423h-152l-24 -282h152z" />
    <glyph glyph-name="dollar" unicode="$" horiz-adv-x="491" 
d="M291 -41l-98 1l4 119q-107 9 -176 82l49 108q2 -2 17 -11.5t19 -12t17.5 -9.5t21.5 -9.5t22.5 -6.5t30 -5t34.5 -1q17 0 30.5 12t13.5 27q0 19 -24.5 33.5t-60 27.5t-71 30.5t-60 51.5t-24.5 82q0 68 47 118t119 64l-5 145h94l2 -141q103 -9 172 -98l-62 -89
q-64 51 -126 51q-23 0 -35.5 -10t-12.5 -24q0 -18 25 -33.5t60.5 -30.5t70.5 -35t60 -56.5t25 -84.5q0 -74 -51.5 -115.5t-129.5 -55.5z" />
    <glyph glyph-name="percent" unicode="%" horiz-adv-x="849" 
d="M428 554q0 -80 -58 -128t-139 -48t-135.5 48t-54.5 130q0 79 50.5 130t138.5 51q90 0 144 -53t54 -130zM849 744l-761 -797l-72 51l762 801zM826 174q0 -59 -31.5 -99t-75.5 -56t-96 -16q-84 0 -138.5 43.5t-54.5 124.5q0 84 59 134.5t148 50.5q91 0 140 -53t49 -129z
M276 560q0 20 -15.5 33.5t-34.5 13.5q-21 0 -35 -14.5t-14 -34.5t14 -32.5t33 -12.5t35.5 13t16.5 34zM620 231q-20 0 -35.5 -14.5t-15.5 -37.5q0 -22 14 -35t37 -13q24 0 38 14t14 35q0 22 -15.5 36.5t-36.5 14.5z" />
    <glyph glyph-name="ampersand" unicode="&#x26;" horiz-adv-x="750" 
d="M735 38l-129 -127q-13 11 -55 45t-68.5 59t-48.5 52q-50 -52 -99 -77.5t-119 -25.5q-98 0 -149 48.5t-51 124.5q0 44 17 82.5t48 68t57 48.5t60 38q-69 72 -69 167q0 85 51 151t158 66q101 0 152.5 -59.5t51.5 -146.5q0 -122 -110 -218l31 -36q39 41 113 144l123 -110
q-81 -108 -136 -155q28 -24 87 -70.5t85 -68.5zM371 565q0 18 -9 32.5t-25 14.5t-26.5 -14t-10.5 -35q0 -27 30 -66q41 41 41 68zM335 174l-46 59q-44 -30 -63.5 -50.5t-19.5 -42.5q0 -16 10.5 -25t26.5 -9q52 0 92 68z" />
    <glyph glyph-name="quotesingle" unicode="'" horiz-adv-x="229" 
d="M190 473l-157 6l-12 255h181z" />
    <glyph glyph-name="parenleft" unicode="(" horiz-adv-x="344" 
d="M323 53l-110 -117q-100 89 -148.5 227t-48.5 271q0 127 43.5 253.5t123.5 216.5l130 -74q-64 -68 -101 -180t-37 -220q0 -101 35 -206.5t113 -170.5z" />
    <glyph glyph-name="parenright" unicode=")" horiz-adv-x="344" 
d="M329 410q0 -133 -44 -259t-124 -215l-129 75q64 68 101 179.5t37 222.5q0 104 -35.5 207t-113.5 168l110 116q103 -89 150.5 -224t47.5 -270z" />
    <glyph glyph-name="asterisk" unicode="*" horiz-adv-x="503" 
d="M482 604l-130 -50l91 -106l-109 -78l-75 133l-77 -137l-118 65l87 117l-130 67l77 114l97 -65l-2 134h138l-14 -141l108 58z" />
    <glyph glyph-name="plus" unicode="+" horiz-adv-x="546" 
d="M525 278l-182 7l1 -181h-147l-1 183h-171l-4 120h183v199l146 -6l1 -195l172 -8z" />
    <glyph glyph-name="comma" unicode="," horiz-adv-x="297" 
d="M276 75q0 -31 -11 -60t-34 -56.5t-66 -46.5t-101 -23l-22 62q78 7 85 31q-49 0 -77.5 30.5t-28.5 77.5q0 52 34.5 87t91.5 35q61 0 95 -40.5t34 -96.5z" />
    <glyph glyph-name="hyphen" unicode="-" horiz-adv-x="443" 
d="M419 403l-3 -178l-393 6v177z" />
    <glyph glyph-name="period" unicode="." horiz-adv-x="294" 
d="M272 92q0 -60 -33.5 -87t-87.5 -27q-60 0 -94 30.5t-34 86.5q0 59 35.5 90t87.5 31t89 -30.5t37 -93.5z" />
    <glyph glyph-name="slash" unicode="/" horiz-adv-x="586" 
d="M576 740l-445 -934l-120 68l434 915z" />
    <glyph glyph-name="zero" unicode="0" horiz-adv-x="726" 
d="M705 349q0 -163 -104 -255t-259 -92q-152 0 -236.5 90.5t-84.5 247.5q0 160 88 258.5t248 98.5q161 0 254.5 -98t93.5 -250zM523 352q0 82 -46.5 132t-119.5 50t-114 -50.5t-41 -132.5q0 -80 39.5 -130t117.5 -50q80 0 122 52.5t42 128.5z" />
    <glyph glyph-name="one" unicode="1" horiz-adv-x="479" 
d="M456 159l-6 -158l-398 2v159h110q16 240 17 363q-37 -37 -98 -58l-65 146q64 21 101 42t71 55l173 -17l-8 -535z" />
    <glyph glyph-name="two" unicode="2" horiz-adv-x="599" 
d="M578 2q-46 -2 -119 -6t-122 -5.5t-126 -1.5q-39 0 -90 0.5t-85 0.5v153q334 212 334 349q0 32 -18 49t-46 17q-75 0 -87 -134l-193 28q0 111 80 193.5t207 82.5q48 0 92 -13.5t81.5 -40t60 -73.5t22.5 -107q0 -111 -69.5 -195t-170.5 -127l240 2z" />
    <glyph glyph-name="three" unicode="3" horiz-adv-x="656" 
d="M632 209q-3 -119 -87 -175t-215 -56q-222 0 -300 173l100 94q82 -91 188 -91q53 0 85.5 19.5t32.5 54.5q0 27 -20 42t-57 15q-29 0 -107 -13l-11 154l75 8q60 6 60 46q0 24 -18.5 41t-55.5 17q-70 0 -135 -65l-98 96q86 137 254 137q109 0 189.5 -55.5t80.5 -145.5
q0 -50 -25.5 -85t-64.5 -43q53 -9 91 -56.5t38 -111.5z" />
    <glyph glyph-name="four" unicode="4" horiz-adv-x="647" 
d="M624 187l-72 -3l-2 -211l-199 -5l-1 225l-311 -3l-8 160l64 352l189 -12l-44 -329l130 -2l2 342l189 4l-2 -352l65 1v-167z" />
    <glyph glyph-name="five" unicode="5" horiz-adv-x="596" 
d="M570 242q0 -66 -24 -115t-67.5 -76t-97 -40t-119.5 -13q-84 0 -142 25t-113 90l80 127q65 -76 176 -76q58 0 85.5 24t27.5 65q0 83 -114 83q-50 0 -148 -30l-62 78l39 298l458 15v-163l-331 10l-8 -65q42 6 97 6q120 0 191.5 -63t71.5 -180z" />
    <glyph glyph-name="six" unicode="6" horiz-adv-x="651" 
d="M630 207q0 -80 -44.5 -137t-110 -82t-143.5 -25q-147 0 -229 92t-82 244q0 77 22.5 147t64.5 126.5t110 90t152 33.5q134 0 217 -75l-31 -138q-83 51 -166 51q-68 0 -116.5 -35t-61.5 -89q25 24 70 37.5t89 13.5q106 0 182.5 -72.5t76.5 -181.5zM450 226q0 44 -34 71.5
t-79 27.5q-48 0 -81.5 -31t-33.5 -75q0 -46 37.5 -72.5t79.5 -26.5q45 0 78 31t33 75z" />
    <glyph glyph-name="seven" unicode="7" horiz-adv-x="515" 
d="M497 707l3 -137q-15 -33 -46 -100t-43 -93.5t-32.5 -80t-29.5 -91t-18 -92t-13 -115.5l-196 16q13 149 45 249t108 266q-28 0 -103.5 2t-160.5 3v173q276 -14 486 0z" />
    <glyph glyph-name="eight" unicode="8" horiz-adv-x="673" 
d="M657 184q0 -108 -92 -161.5t-236 -53.5q-88 0 -155 19t-111.5 67.5t-44.5 123.5q0 72 35.5 124t84.5 72q-46 24 -70.5 58t-24.5 87q0 102 83.5 159t206.5 57q53 0 102 -11t92.5 -34.5t70 -65.5t26.5 -98q0 -62 -29.5 -106t-67.5 -55q60 -19 95 -67.5t35 -114.5zM440 503
q0 36 -28 61.5t-73 25.5q-41 0 -69 -23t-28 -62t27 -59t68 -20q42 0 72.5 20.5t30.5 56.5zM458 197q0 44 -33 67t-79 23q-48 0 -79 -24t-31 -62q0 -37 30 -60t84 -23q45 0 76.5 18.5t31.5 60.5z" />
    <glyph glyph-name="nine" unicode="9" horiz-adv-x="673" 
d="M650 342q0 -117 -48.5 -203t-127 -127.5t-175.5 -41.5q-169 0 -270 140l101 82q53 -43 86.5 -58.5t80.5 -15.5q151 0 157 132q-63 -49 -169 -49q-108 0 -182 70.5t-74 178.5q0 82 47 141.5t115 86.5t144 27q147 0 231 -102.5t84 -260.5zM458 452q0 46 -37 74.5t-90 28.5
q-51 0 -86.5 -27t-35.5 -79q0 -50 33.5 -75t81.5 -25q51 0 92.5 27t41.5 76z" />
    <glyph glyph-name="colon" unicode=":" horiz-adv-x="243" 
d="M227 459q0 -52 -29.5 -81t-76.5 -29q-50 0 -81.5 30.5t-31.5 78.5q0 46 30 77t81 31q45 0 76.5 -26.5t31.5 -80.5zM119 0q-52 0 -79.5 31.5t-27.5 76.5q0 50 33 82t79 32t75 -31t29 -81q0 -51 -29 -80.5t-80 -29.5z" />
    <glyph glyph-name="semicolon" unicode=";" horiz-adv-x="284" 
d="M259 442q0 -48 -30.5 -82t-84.5 -34t-84 34t-30 82t30.5 82.5t85.5 34.5q54 0 83.5 -34.5t29.5 -82.5zM267 75q0 -31 -11 -60t-34 -56.5t-66 -46.5t-101 -23l-21 62q77 7 85 31q-49 0 -77.5 30.5t-28.5 77.5q0 52 34 87t92 35q61 0 94.5 -40.5t33.5 -96.5z" />
    <glyph glyph-name="less" unicode="&#x3c;" horiz-adv-x="672" 
d="M198 290l428 -374l-98 -111l-507 431l4 105l516 472l110 -108z" />
    <glyph glyph-name="equal" unicode="=" horiz-adv-x="537" 
d="M511 510l-9 -135l-480 7l4 134zM509 287l-9 -133l-484 5l6 134z" />
    <glyph glyph-name="greater" unicode="&#x3e;" horiz-adv-x="671" 
d="M144 -195l-99 111l429 374l-453 415l110 108l515 -472l4 -105z" />
    <glyph glyph-name="question" unicode="?" horiz-adv-x="528" 
d="M496 520q0 -90 -53.5 -146.5t-156.5 -93.5l2 -68l-167 3l8 160q71 7 124 44.5t53 99.5q0 41 -25.5 64t-73.5 23q-67 0 -116 -39l-81 125q82 71 202 71q118 0 201 -63t83 -180zM205 -58q-49 0 -79.5 31.5t-30.5 81.5q0 51 33 81.5t82 30.5q51 0 82 -31.5t31 -79.5
q0 -50 -34.5 -82t-83.5 -32z" />
    <glyph glyph-name="at" unicode="@" horiz-adv-x="902" 
d="M897 421q0 -59 -11.5 -112.5t-36.5 -102.5t-72 -78.5t-111 -29.5q-47 0 -73 17t-39 56q-26 -37 -69.5 -54t-85.5 -17q-75 0 -121.5 46.5t-46.5 125.5q0 101 69.5 181t155.5 80q61 0 84 -37l8 41l116 -19q-3 -15 -10 -53.5t-10.5 -59.5t-7 -51.5t-3.5 -55.5
q0 -102 60 -102q40 0 68 38.5t39 87.5t11 100q0 116 -66.5 189.5t-196.5 73.5q-113 0 -212 -56.5t-159 -156t-60 -218.5q0 -104 48.5 -178.5t122.5 -108.5t162 -34q162 0 314 139l52 -69q-79 -71 -177.5 -115t-204.5 -44q-111 0 -204.5 46.5t-153 141t-59.5 218.5
q0 141 73 261t197.5 190t268.5 70q160 0 250.5 -89.5t90.5 -260.5zM508 329q0 34 -14 55.5t-42 21.5q-40 0 -68.5 -40t-28.5 -85q0 -61 56 -61q39 0 68 29t29 80z" />
    <glyph glyph-name="A" unicode="A" 
d="M693 0l-208 -34l-37 143l-180 3l-38 -135l-219 30l231 693l237 2zM421 235l-64 246l-56 -241z" />
    <glyph glyph-name="B" unicode="B" horiz-adv-x="601" 
d="M590 187q0 -56 -24.5 -97t-67.5 -63.5t-93 -33t-108 -10.5q-101 0 -241 34l-14 677q83 13 174 13q327 0 327 -198q0 -59 -25 -95t-56 -45q47 -10 87.5 -58t40.5 -124zM360 481q0 33 -26 51.5t-74 13.5v-123q43 -7 71.5 8t28.5 50zM389 210q0 37 -29.5 61t-99.5 17v-135
q32 -13 58 -13q36 0 53.5 20.5t17.5 49.5z" />
    <glyph glyph-name="C" unicode="C" horiz-adv-x="683" 
d="M480 295l177 -32q-27 -142 -99.5 -211.5t-199.5 -69.5q-158 0 -245 100t-87 256t86.5 259.5t248.5 103.5q122 0 195.5 -61t98.5 -175l-177 -27q-40 86 -111 86q-59 0 -91.5 -45t-32.5 -127q0 -84 32.5 -136t85.5 -52q45 0 78.5 36.5t40.5 94.5z" />
    <glyph glyph-name="D" unicode="D" horiz-adv-x="657" 
d="M636 326q0 -165 -114.5 -261t-290.5 -96q-88 0 -189 28q-3 162 -3 302q0 198 7 395q60 12 130 12q202 0 331 -102t129 -278zM434 341q0 74 -46 130t-134 52q-2 -234 1 -358q89 -9 134 46.5t45 129.5z" />
    <glyph glyph-name="E" unicode="E" horiz-adv-x="537" 
d="M518 166l-3 -168h-57q-293 0 -420 9l9 475q1 154 -1 224h467l-5 -169l-253 -6l6 -85l180 8l7 -168l-187 -6l-2 -114h259z" />
    <glyph glyph-name="F" unicode="F" horiz-adv-x="520" 
d="M516 690l-11 -188q-143 6 -240 5l-1 -82q82 3 214 1v-169q-57 0 -213 -3q1 -47 -3 -256l-212 12q10 331 -5 679z" />
    <glyph glyph-name="G" unicode="G" horiz-adv-x="687" 
d="M661 534l-177 -71q-20 36 -41.5 53.5t-61.5 17.5q-71 0 -107.5 -54.5t-36.5 -144.5q0 -86 32.5 -139t89.5 -53q47 0 81 33.5t36 87.5l-150 -6l-4 128l337 5q7 -69 7 -114q0 -144 -89.5 -219.5t-228.5 -75.5q-70 0 -126.5 20.5t-93 55t-61.5 81.5t-35.5 97.5t-10.5 105.5
q0 164 91.5 261.5t259.5 97.5q111 0 177 -43t112 -124z" />
    <glyph glyph-name="H" unicode="H" horiz-adv-x="653" 
d="M611 6l-195 -4q-6 168 -6 267q-29 -1 -131 -1l7 -271l-229 -9q-2 79 -4 226.5t-4.5 257.5t-6.5 225l226 9l11 -267q73 0 131 2v253h195q0 -25 1 -173.5t2 -296.5t3 -218z" />
    <glyph glyph-name="I" unicode="I" horiz-adv-x="330" 
d="M253 -6l-194 2q10 485 -4 721l199 -6q16 -348 -1 -717z" />
    <glyph glyph-name="J" unicode="J" horiz-adv-x="584" 
d="M282 687l202 23q20 -90 34 -219t14 -229q0 -174 -56 -252.5t-200 -78.5q-106 0 -169.5 44t-92.5 139l146 86q22 -51 45 -75t58 -24t53.5 30.5t18.5 115.5q0 140 -53 440z" />
    <glyph glyph-name="K" unicode="K" horiz-adv-x="633" 
d="M622 153l-29 -163q-150 6 -221.5 78t-92.5 212l-19 -18q-3 -129 -15 -262l-196 13q16 373 -7 689l203 -5q6 -152 12 -236l220 260l128 -135l-199 -208q15 -94 70.5 -155t145.5 -70z" />
    <glyph glyph-name="L" unicode="L" horiz-adv-x="510" 
d="M505 -2q-109 7 -238 7q-139 0 -217 -6q-8 220 -8 311q0 195 19 400l215 -11q-27 -279 -13 -523q125 0 242 -5v-173z" />
    <glyph glyph-name="M" unicode="M" horiz-adv-x="861" 
d="M802 4l-196 -2v313l-115 -308h-138l-108 307l-1 -316l-194 6l-1 671l224 18l151 -360l165 375l224 -35z" />
    <glyph glyph-name="N" unicode="N" horiz-adv-x="720" 
d="M691 697q-18 -155 -19.5 -335t4.5 -334l-195 -53l-241 366l4 -340l-195 -4l-3 702l191 25l245 -372q5 195 25 362z" />
    <glyph glyph-name="O" unicode="O" horiz-adv-x="710" 
d="M689 349q0 -167 -93.5 -257t-243.5 -90q-149 0 -240 89t-91 253q0 160 88.5 256.5t249.5 96.5q162 0 246 -96.5t84 -251.5zM474 350q0 87 -31 136t-87 49q-59 0 -94.5 -51t-35.5 -138q0 -78 30 -131t95 -53q64 0 93.5 52t29.5 136z" />
    <glyph glyph-name="P" unicode="P" horiz-adv-x="617" 
d="M601 448q0 -124 -89 -204t-259 -80l9 -147l-203 -13l-17 675q111 28 211 28q170 0 259 -68t89 -191zM392 441q0 86 -91 86q-27 0 -59 -10l4 -166q18 -3 35 -3q63 0 87 27.5t24 65.5z" />
    <glyph glyph-name="Q" unicode="Q" horiz-adv-x="742" 
d="M747 33q-13 -64 -67.5 -110t-123.5 -46q-54 0 -90 30.5t-65 86.5q-30 -4 -47 -4q-148 0 -234.5 99t-86.5 255t88 254.5t255 98.5q157 0 246 -90t89 -251q0 -208 -145 -303q0 -17 14 -17q16 0 44 21t37 38zM507 359q0 29 -7 58.5t-22 58t-43.5 46.5t-66.5 18
q-70 0 -105 -56t-35 -132q0 -18 2 -31t5.5 -24.5t4.5 -19.5q7 36 40.5 65t71.5 29q48 0 84.5 -44.5t38.5 -95.5q32 61 32 128zM378 181q0 60 -40 60q-20 0 -35 -12.5t-15 -32.5v-1q14 -12 37.5 -22t41.5 -10q3 0 6 0.5t4 0.5q1 6 1 17z" />
    <glyph glyph-name="R" unicode="R" horiz-adv-x="649" 
d="M638 43l-148 -124q-62 29 -112 108.5t-62 160.5q-3 0 -17.5 -1.5t-23.5 -1.5l8 -180l-224 -12l-17 676q127 31 243 31q166 0 251.5 -66t85.5 -174q0 -65 -30.5 -126.5t-92.5 -97.5q32 -132 139 -193zM413 441q0 38 -21 65t-76 27q-21 0 -53 -5q0 -78 4 -188q11 -1 30 -1
q66 0 91 30.5t25 71.5z" />
    <glyph glyph-name="S" unicode="S" horiz-adv-x="600" 
d="M573 198q0 -110 -77.5 -166.5t-192.5 -56.5q-117 0 -189 59t-84 161l181 21q21 -62 73 -62q19 0 38 7.5t19 23.5q0 15 -21.5 32.5t-53 34t-69 41.5t-69 53t-53 71.5t-21.5 94.5q0 95 69 148t181 53q193 0 234 -166l-168 -54q-10 36 -23.5 51t-34.5 15q-32 0 -32 -25
q0 -18 21.5 -36t54.5 -34t70.5 -40t70.5 -52t54.5 -73.5t21.5 -100.5z" />
    <glyph glyph-name="T" unicode="T" horiz-adv-x="568" 
d="M559 523l-173 -1q-19 -364 -15 -518l-207 1q-3 132 15 523l-169 3l5 170l540 -8z" />
    <glyph glyph-name="U" unicode="U" horiz-adv-x="709" 
d="M677 359q0 -69 -8 -121t-29 -98t-57 -75t-93 -46t-136 -17q-81 0 -139.5 18t-93.5 48t-55 78.5t-27 100.5t-7 123q0 59 5.5 185t5.5 134l214 12q-14 -220 -14 -293q0 -71 7 -121t16 -75.5t24 -39.5t25.5 -16.5t25.5 -2.5q65 0 95.5 41.5t34.5 156.5q3 131 -2 340l196 4
q12 -292 12 -336z" />
    <glyph glyph-name="V" unicode="V" horiz-adv-x="714" 
d="M704 660l-252 -692l-203 -2l-238 702l205 38l136 -497l141 496z" />
    <glyph glyph-name="W" unicode="W" horiz-adv-x="967" 
d="M961 662l-196 -662h-198l-71 377l-105 -375l-185 -4l-201 693l241 23l79 -416l116 424l125 4l76 -403l95 388z" />
    <glyph glyph-name="X" unicode="X" horiz-adv-x="655" 
d="M642 646l-213 -285l226 -274l-181 -129l-149 219l-144 -229l-176 97l211 284l-208 304l189 108l150 -231l135 219z" />
    <glyph glyph-name="Y" unicode="Y" horiz-adv-x="628" 
d="M413 704h183q10 -333 10 -389q0 -363 -291 -363q-181 0 -283 149l106 66q26 -32 67 -52.5t85 -20.5q75 0 109 75q-45 -27 -96 -27q-71 0 -123 34.5t-80.5 94.5t-41.5 127.5t-13 145.5q0 96 11 178l211 -13q-14 -116 -14 -228q0 -165 81 -165q30 0 50 23.5t26 50t6 52.5
q0 37 -2 126t-1 136z" />
    <glyph glyph-name="Z" unicode="Z" horiz-adv-x="622" 
d="M601 189l-19 -195l-557 6l-4 169l283 324l-278 4l14 202h536v-191l-277 -327z" />
    <glyph glyph-name="bracketleft" unicode="[" horiz-adv-x="393" 
d="M363 676l-134 -3l3 -642l123 1l10 -154l-301 -1l1 950l307 2z" />
    <glyph glyph-name="backslash" unicode="\" horiz-adv-x="586" 
d="M454 -194l-444 934l130 49l435 -915z" />
    <glyph glyph-name="bracketright" unicode="]" horiz-adv-x="389" 
d="M24 -122l10 154l121 -1l3 642l-133 3l-4 153l303 -2l1 -950z" />
    <glyph glyph-name="asciicircum" unicode="^" horiz-adv-x="385" 
d="M363 563l-131 -46l-42 76l-47 -79l-119 38l117 188l106 1z" />
    <glyph glyph-name="underscore" unicode="_" horiz-adv-x="563" 
d="M583 -131h-601l-2 110l603 2v-112z" />
    <glyph glyph-name="grave" unicode="`" horiz-adv-x="477" 
d="M375 567l-280 20l15 140l260 -70z" />
    <glyph glyph-name="a" unicode="a" horiz-adv-x="638" 
d="M428 511l168 -1l-2 -533l-186 -6l1 49q-43 -43 -139 -43q-109 0 -179 69t-70 188q0 126 77.5 196.5t184.5 70.5q88 0 143 -47zM397 247q0 44 -24.5 73.5t-67.5 29.5q-41 0 -68.5 -27.5t-27.5 -72.5q0 -43 27 -70t69 -27q41 0 66.5 25.5t25.5 68.5z" />
    <glyph glyph-name="b" unicode="b" horiz-adv-x="609" 
d="M590 233q0 -109 -65 -178.5t-173 -69.5q-58 0 -105 20t-68 50l-4 -107l-143 6q0 453 29 759l190 -12q-26 -238 -27 -254q35 35 116 35q109 0 179.5 -67.5t70.5 -181.5zM404 218q0 38 -25 69.5t-68 31.5q-41 0 -65 -26t-24 -65q0 -40 25 -68.5t64 -28.5q35 0 64 23.5
t29 63.5z" />
    <glyph glyph-name="c" unicode="c" horiz-adv-x="549" 
d="M388 220l144 -41q-25 -103 -89.5 -152.5t-159.5 -49.5q-125 0 -193.5 78.5t-68.5 199.5q0 124 70 199.5t194 75.5q104 0 166.5 -53.5t82.5 -142.5l-148 -37q-7 28 -30.5 49.5t-59.5 21.5q-40 0 -65.5 -29t-25.5 -79q0 -51 26 -83.5t62 -32.5q29 0 57.5 21.5t37.5 54.5z
" />
    <glyph glyph-name="d" unicode="d" horiz-adv-x="628" 
d="M590 284q0 -68 -2.5 -186.5t-3.5 -156.5h-172v88q-42 -39 -140 -39q-110 0 -180.5 61.5t-70.5 181.5q0 121 70 190t174 69q79 0 120 -38q-3 135 -12 220l194 13q23 -182 23 -403zM391 238q0 43 -23.5 72t-65.5 29t-67.5 -30.5t-25.5 -74.5q0 -47 27 -76.5t63 -29.5
q37 0 64.5 31t27.5 79z" />
    <glyph glyph-name="e" unicode="e" horiz-adv-x="588" 
d="M572 129q-48 -62 -120 -95.5t-149 -34.5q-74 -1 -136.5 26t-104 86.5t-41.5 142.5q0 122 82.5 194t207.5 72q111 0 176.5 -60t65.5 -169q0 -19 -3 -39l-289 -42q5 -20 26 -32.5t53 -12.5q37 0 82.5 16.5t69.5 40.5zM388 321q-3 24 -23.5 41t-50.5 17q-34 0 -53 -23.5
t-19 -54.5z" />
    <glyph glyph-name="f" unicode="f" horiz-adv-x="457" 
d="M476 691l-93 -114q-33 36 -68 36q-32 0 -48 -26t-16 -58q0 -11 3.5 -40t3.5 -39l174 6l11 -141l-167 -14q0 -94 28 -296l-190 -34q-2 15 -28 323l-69 -6l-12 126l68 13q-6 60 -6 88q0 111 57 185t163 74q42 0 65 -3t57 -22t67 -58z" />
    <glyph glyph-name="g" unicode="g" horiz-adv-x="601" 
d="M562 540q2 -83 1 -181.5t-3 -180.5l-1 -82q0 -109 -74.5 -176.5t-201.5 -67.5q-133 0 -228 91l70 103q17 -16 62.5 -36t93.5 -20q58 0 85 29.5t29 59.5q-40 -47 -127 -47q-109 0 -177.5 68.5t-68.5 171.5q0 106 70 182t191 76q81 0 141 -38l3 48h135zM387 271v5
q0 41 -24.5 69.5t-65.5 28.5h-2q-35 0 -62.5 -31.5t-27.5 -71.5q0 -41 28.5 -70t63.5 -29q34 0 61.5 29.5t28.5 69.5z" />
    <glyph glyph-name="h" unicode="h" horiz-adv-x="584" 
d="M563 205q0 -112 -27 -217l-188 13q19 97 19 198q0 62 -14.5 88t-48.5 26t-50.5 -22.5t-16.5 -57.5q-1 -84 -5 -236l-200 9q10 363 3 702l200 -4q0 -17 3 -277q41 50 121 50q105 0 154.5 -74.5t49.5 -197.5z" />
    <glyph glyph-name="i" unicode="i" horiz-adv-x="307" 
d="M252 584q0 -44 -27.5 -74.5t-75.5 -30.5q-44 0 -74 26.5t-30 73.5q0 44 28.5 72t74.5 28q45 0 74.5 -24.5t29.5 -70.5zM254 441q-21 -93 -21 -203q0 -63 17 -244h-190q-14 138 -14 234q0 114 17 217z" />
    <glyph glyph-name="j" unicode="j" horiz-adv-x="293" 
d="M223 606q0 -42 -30.5 -75t-76.5 -33q-42 0 -73.5 28t-31.5 75q0 45 29.5 75.5t72.5 30.5q45 0 77.5 -29t32.5 -72zM266 46q0 -65 -12 -117t-37.5 -93.5t-71 -63.5t-107.5 -21q-70 1 -122 29.5t-81 76.5l102 75q29 -39 63 -39q24 0 41 20.5t24 52.5t9.5 56t2.5 47
q0 50 -12.5 145t-25.5 165l-13 70l194 18q3 -20 13 -91t13.5 -99t9.5 -78.5t8 -86t2 -66.5z" />
    <glyph glyph-name="k" unicode="k" horiz-adv-x="544" 
d="M554 81l-160 -104l-149 144q-2 -74 -12 -128l-198 17q14 107 14 252q0 198 -28 432l199 13q2 -24 9 -114.5t10 -149.5t3 -126l131 220l151 -91l-158 -214z" />
    <glyph glyph-name="l" unicode="l" horiz-adv-x="286" 
d="M262 -43l-184 -13q-36 173 -36 394q0 163 27 386l180 -11q-25 -160 -25 -340q0 -255 38 -416z" />
    <glyph glyph-name="m" unicode="m" horiz-adv-x="797" 
d="M778 230q0 -90 -28 -252l-188 22q36 176 36 263q0 80 -47 80q-34 0 -43.5 -42t-9.5 -145q0 -135 8 -184l-194 5q4 105 4 216q0 43 -1 64.5t-5 44.5t-14 32t-26 9q-37 0 -37 -45l-6 -312l-189 -3v144v112v75.5t-1 68.5t-2 55t-3 68l173 4l7 -71q7 22 37.5 43t70.5 21
q36 0 63 -17.5t37 -43.5q47 68 151 68q60 0 102 -21.5t64 -62t31.5 -87.5t9.5 -109z" />
    <glyph glyph-name="n" unicode="n" horiz-adv-x="605" 
d="M579 179q0 -47 -10 -192l-195 -2q1 44 6.5 124.5t5.5 112.5q0 66 -14.5 96t-48.5 30q-29 0 -55.5 -20.5t-39.5 -47.5q11 -153 15 -303l-192 -5q-9 287 -21 501l185 4l2 -49q28 31 60 46t84 15q64 0 107.5 -21.5t67 -64.5t33.5 -96.5t10 -127.5z" />
    <glyph glyph-name="o" unicode="o" horiz-adv-x="582" 
d="M559 236q0 -115 -80 -181.5t-190 -66.5q-108 0 -187 65.5t-79 182.5q0 61 23.5 109t62.5 76t86 42t98 14q114 0 190 -65t76 -176zM374 241q0 42 -21.5 66.5t-59.5 24.5q-41 0 -64 -26.5t-23 -70.5t22 -70t60 -26q40 0 63 29t23 73z" />
    <glyph glyph-name="p" unicode="p" horiz-adv-x="625" 
d="M604 280q0 -116 -72 -188.5t-182 -72.5q-68 0 -119 42q10 -160 6 -362l-189 4q0 454 -22 842l190 4l1 -59q50 41 133 41q113 0 183.5 -68t70.5 -183zM418 276q0 46 -25 69.5t-60 23.5q-38 0 -62.5 -26t-24.5 -70q0 -46 27.5 -68.5t63.5 -22.5q39 0 60 26.5t21 67.5z" />
    <glyph glyph-name="q" unicode="q" horiz-adv-x="617" 
d="M590 586q-3 -114 -13 -322t-10 -334q0 -49 2 -169l-190 -4q0 14 -0.5 41t-0.5 49q0 35 5 200q-55 -21 -113 -21q-111 0 -184 67t-73 183q0 120 77 192.5t182 72.5q45 0 85.5 -14t62.5 -33q0 43 2 96zM383 278q0 41 -25 69.5t-65 28.5q-37 0 -65 -25t-28 -68q0 -41 25 -68
t65 -27q38 0 65.5 23.5t27.5 66.5z" />
    <glyph glyph-name="r" unicode="r" horiz-adv-x="464" 
d="M450 511l-19 -154q-30 33 -79 33q-53 0 -80.5 -44t-27.5 -122q0 -41 19 -210l-197 -9l-40 525l174 19l24 -153q4 22 12 44t23 47.5t40 41.5t56 16q48 0 95 -34z" />
    <glyph glyph-name="s" unicode="s" horiz-adv-x="492" 
d="M463 160q0 -82 -57 -125t-157 -43q-143 0 -234 83l53 119q87 -67 155 -67q29 0 29 18q0 15 -16 28t-40 22t-51.5 24t-51.5 33t-40 50t-16 73q0 82 57.5 121.5t150.5 39.5q116 0 214 -80l-64 -109q-26 23 -61.5 38t-62.5 15q-34 0 -34 -22q0 -15 23.5 -26t56.5 -22.5
t66 -28.5t56.5 -53t23.5 -88z" />
    <glyph glyph-name="t" unicode="t" horiz-adv-x="547" 
d="M531 179q0 -103 -68 -168.5t-164 -65.5q-52 0 -91.5 22t-61.5 59.5t-32.5 82.5t-10.5 97q0 59 11 117l-106 8l14 141l121 12q3 16 10 100.5t12 122.5l187 18q-5 -28 -12 -132.5t-8 -112.5h166v-161l-191 -1q-12 -92 -12 -119q0 -95 56 -95q60 0 58 105h121q1 -10 1 -30z
" />
    <glyph glyph-name="u" unicode="u" horiz-adv-x="602" 
d="M576 -30l-187 -4v60q-44 -61 -144 -61q-108 0 -165 67.5t-57 190.5q0 41 6.5 112.5t12.5 122.5l7 50l201 2q-31 -160 -31 -302q0 -32 19 -53t52 -21q35 0 59.5 22t24.5 58q0 118 -13 314l194 4q3 -105 10.5 -281t10.5 -281z" />
    <glyph glyph-name="v" unicode="v" horiz-adv-x="602" 
d="M604 474l-209 -494l-195 8l-202 510l207 52l113 -354l136 366z" />
    <glyph glyph-name="w" unicode="w" horiz-adv-x="742" 
d="M740 488l-122 -508l-189 6l-59 249l-68 -238l-185 3l-115 465l165 40l73 -293l81 302l115 -11l83 -276l71 299z" />
    <glyph glyph-name="x" unicode="x" horiz-adv-x="561" 
d="M528 143l6 -168q-71 -14 -139.5 13.5t-104.5 94.5q-49 -62 -107 -88.5t-136 -27.5l-2 186q27 2 45 4.5t45.5 11t42 26.5t14.5 45q0 48 -43.5 69t-89.5 4l-33 177q87 15 159.5 -8t110.5 -97q51 127 219 130l13 -178q-59 -4 -93 -23.5t-34 -69.5q0 -53 37.5 -78t89.5 -23z
" />
    <glyph glyph-name="y" unicode="y" horiz-adv-x="584" 
d="M353 496l170 12q3 -51 9 -127t8.5 -120.5t2.5 -89.5q0 -208 -58.5 -292.5t-190.5 -84.5q-147 0 -245 82l54 124q44 -52 139 -52t113 68q-27 -28 -80 -28q-57 0 -101.5 18t-71.5 48t-44.5 72.5t-24.5 86.5t-7 95q0 28 2.5 57.5t5 49t8 54t8.5 53.5l190 -13
q-13 -98 -13 -193q0 -158 71 -158q34 0 46 32t12 91q0 142 -3 215z" />
    <glyph glyph-name="z" unicode="z" horiz-adv-x="524" 
d="M492 28l-450 -12l-5 141l215 204l-211 -2l-1 152l444 3v-150l-178 -205l176 8z" />
    <glyph glyph-name="braceleft" unicode="{" horiz-adv-x="373" 
d="M318 878l19 -141q-52 -10 -80 -53t-28 -111q0 -59 20 -110.5t57 -70.5l-49 -38l45 -40q-27 -16 -47 -58t-20 -84q0 -53 30 -103t66 -62l-20 -152q-103 8 -177.5 98t-74.5 214q0 65 30 144l-68 49l62 51q-31 49 -31 154q0 137 75.5 218t190.5 95z" />
    <glyph glyph-name="bar" unicode="|" horiz-adv-x="229" 
d="M198 -73l-176 5l4 828l172 -11v-822z" />
    <glyph glyph-name="braceright" unicode="}" horiz-adv-x="373" 
d="M357 372l-61 -51q25 -67 25 -112q0 -173 -71 -254t-195 -100l-19 134q52 8 80 55t28 110q0 55 -20 111t-57 75l50 38l-35 34q21 17 38.5 68.5t17.5 86.5q0 46 -30.5 96t-65.5 62l21 153q105 -10 178 -100t73 -218q0 -74 -25 -138z" />
    <glyph glyph-name="asciitilde" unicode="~" horiz-adv-x="661" 
d="M656 703q-15 -28 -35.5 -57.5t-50 -61.5t-66.5 -52.5t-74 -20.5q-40 0 -108 32t-85 32q-23 0 -52 -23t-41 -50l-128 151q9 7 38.5 31.5t43 34t39 24.5t50.5 21t54 6q44 0 84 -16t68 -32t43 -16q34 0 73 67z" />
    <glyph glyph-name="exclamdown" unicode="&#xa1;" horiz-adv-x="257" 
d="M45 480h163l22 -556l-200 6zM17 617q0 45 33 82.5t79 37.5h3q45 0 79.5 -29.5t34.5 -77.5v-2q0 -48 -28.5 -82t-80.5 -34q-50 0 -84.5 30.5t-35.5 74.5z" />
    <glyph glyph-name="cent" unicode="&#xa2;" horiz-adv-x="589" 
d="M578 439l-178 -50l-3 6t-10 14.5t-17 18t-25 14t-34 6.5q-43 0 -68.5 -29.5t-25.5 -71.5t25 -66t57 -24q28 0 51.5 20.5t51.5 65.5l164 -75q-61 -133 -185 -174v-73h-191v78q-86 30 -132 92t-46 151q0 91 47 156.5t134 99.5l3 107h191l-3 -93q59 -12 106 -51t88 -122z
" />
    <glyph glyph-name="sterling" unicode="&#xa3;" horiz-adv-x="619" 
d="M598 205q0 -247 -156 -247q-45 0 -86.5 19.5t-62.5 50.5q-27 -32 -55 -47.5t-69 -15.5q-69 0 -103 40t-34 102q0 70 37.5 105t79.5 35q31 0 52 -18q1 13 -7 48t-14 48l-130 5l4 104l70 2q-29 37 -29 81q0 85 65 153t177 68q162 0 240 -150l-106 -96q-55 104 -128 104
q-41 0 -60.5 -26t-19.5 -56q0 -35 37 -78h140l3 -111l-89 1q16 -70 -11 -150q13 -62 74 -62q63 0 63 77zM230 107q0 33 -30 33q-28 0 -28 -30q0 -28 32 -28q26 0 26 25z" />
    <glyph glyph-name="yen" unicode="&#xa5;" horiz-adv-x="700" 
d="M695 674q-179 -250 -238 -342q5 0 38 -0.5t74 -0.5v-116l-124 -6v-63l132 3l-1 -97q-71 0 -147 -2l-1 -74h-191l1 73l-124 -1v104l137 -3l-3 57l-145 6v119l106 1l-207 323l206 73l132 -243q5 7 17.5 26.5t19.5 29.5t19 29t19.5 31t17.5 28.5t16 28.5t12.5 24.5t9.5 22.5
t4 17z" />
    <glyph glyph-name="brokenbar" unicode="&#xa6;" horiz-adv-x="238" 
d="M214 810l-3 -414l-185 -10l3 424h185zM223 -19l-181 -40l-18 417l185 -15z" />
    <glyph glyph-name="section" unicode="&#xa7;" horiz-adv-x="478" 
d="M459 387q0 -100 -73 -160q34 -46 34 -107q0 -83 -57 -127.5t-135 -44.5q-70 0 -169 51l73 157q66 -35 99 -35q23 0 23 19q0 6 -2 11.5t-7 9.5t-9 6.5t-11.5 5t-11 3.5t-11.5 2.5t-9 1.5q-66 15 -111.5 70.5t-45.5 128.5q0 99 73 157q-33 46 -33 108q0 82 56.5 126
t133.5 44q72 0 171 -51l-73 -156q-64 34 -99 34q-23 0 -23 -18q0 -4 1.5 -8t3 -7t5.5 -6t6.5 -5t7.5 -4t7.5 -3.5t8.5 -3t7.5 -1.5t7.5 -1l6 -2q68 -15 112 -68.5t44 -126.5zM294 376q0 25 -14.5 39.5t-36.5 14.5q-41 0 -41 -43q0 -25 14 -39.5t36 -14.5q19 0 30.5 11
t11.5 32z" />
    <glyph glyph-name="dieresis" unicode="&#xa8;" horiz-adv-x="441" 
d="M424 652q0 -77 -90 -77q-98 0 -98 83q0 80 92 80q96 0 96 -86zM214 654q0 -81 -90 -81q-46 0 -72.5 21.5t-26.5 62.5q0 81 94 81q95 0 95 -84z" />
    <glyph glyph-name="copyright" unicode="&#xa9;" horiz-adv-x="741" 
d="M607 283q-26 -87 -91.5 -130.5t-155.5 -43.5q-118 0 -182.5 68.5t-64.5 170.5q0 103 68 170t192 67q183 0 234 -156l-149 -44q-5 24 -28.5 43t-56.5 19q-38 0 -62.5 -26t-24.5 -68q0 -43 25 -71.5t59 -28.5q28 0 55.5 19t34.5 48zM5 350q0 149 105.5 254t254.5 105
t254 -105.5t105 -253.5q0 -149 -105.5 -254.5t-253.5 -105.5q-149 0 -254.5 105.5t-105.5 254.5zM57 350q0 -128 90.5 -218t217.5 -90t217 90.5t90 217.5t-90 217t-217 90t-217.5 -90t-90.5 -217z" />
    <glyph glyph-name="ordfeminine" unicode="&#xaa;" horiz-adv-x="291" 
d="M269 516l-15 -66q-42 0 -64 22q-34 -23 -72 -23q-37 0 -60 24.5t-23 58.5q0 47 39.5 79.5t89.5 42.5q-1 11 -4.5 14.5t-11.5 3.5q-32 0 -70 -46l-48 58q17 31 50 51t68 20q96 0 96 -161q0 -19 -1 -35.5t-1 -25.5q0 -11 27 -17zM172 554q-1 9 -1 25q-55 -15 -55 -39
q0 -15 11 -15q19 0 45 29zM245 334l-190 -20l-6 93l196 11v-84z" />
    <glyph glyph-name="guillemotleft" unicode="&#xab;" horiz-adv-x="812" 
d="M781 425l-237 -146l227 -136l-34 -130l-343 198v133q68 31 151 82t132 86l49 35zM419 407l-237 -146l226 -136l-34 -131l-342 198v134q68 31 151 82t132 86l49 35z" />
    <glyph glyph-name="registered" unicode="&#xae;" horiz-adv-x="741" 
d="M558 131l-136 -13l-66 135q-8 -1 -25 -1l1 -122l-126 -8l-11 451q63 21 126 21.5t112.5 -17.5t80.5 -58.5t31 -97.5q0 -48 -20.5 -83.5t-51.5 -53.5zM413 417q0 30 -26.5 46.5t-66.5 6.5q0 -23 1.5 -60t1.5 -47q41 -2 65.5 12t24.5 42zM5 350q0 149 105.5 254t254.5 105
t254 -105.5t105 -253.5q0 -149 -105.5 -254.5t-253.5 -105.5q-149 0 -254.5 105.5t-105.5 254.5zM57 350q0 -128 90.5 -218t217.5 -90t217 90.5t90 217.5t-90 217t-217 90t-217.5 -90t-90.5 -217z" />
    <glyph glyph-name="macron" unicode="&#xaf;" horiz-adv-x="374" 
d="M342 729l4 -124l-315 7v123z" />
    <glyph glyph-name="degree" unicode="&#xb0;" horiz-adv-x="514" 
d="M428 579q0 -64 -47 -97.5t-109 -33.5q-61 0 -101.5 34.5t-40.5 95.5q0 62 41.5 98t106.5 36t107.5 -36.5t42.5 -96.5zM328 586q0 21 -14.5 31.5t-33.5 10.5q-21 0 -35.5 -11.5t-14.5 -32.5q0 -20 13 -34t34 -14t36 15t15 35z" />
    <glyph glyph-name="acute" unicode="&#xb4;" horiz-adv-x="365" 
d="M326 630l-279 -21l3 85l261 76z" />
    <glyph glyph-name="mu" unicode="&#xb5;" horiz-adv-x="791" 
d="M770 273q0 -60 -8.5 -107.5t-30 -93.5t-67 -71.5t-111.5 -25.5q-119 0 -149 75q-31 -77 -116 -77q-16 0 -32 3t-34.5 10t-32.5 22.5t-19 38.5q0 -44 -4 -80l-127 -6q-7 420 -7 540l188 -4l7 -308q0 -18 11.5 -39t31.5 -21q50 0 50 132q0 36 -2 76.5t-6 92.5t-6 77l173 4
q-4 -33 -4 -101q0 -269 74 -269q44 0 44 88q0 71 -48 240l198 41q27 -159 27 -237z" />
    <glyph glyph-name="paragraph" unicode="&#xb6;" horiz-adv-x="662" 
d="M648 694q0 -119 -5.5 -338.5t-5.5 -337.5h-143q0 118 5.5 337.5t5.5 338.5h143zM458 694l-4 -677h-175l2 172q-135 0 -198 64.5t-63 175.5q0 120 66.5 190.5t174.5 72.5q115 2 197 2zM284 526q-34 0 -58 -20.5t-24 -56.5q0 -35 22 -60t57 -25z" />
    <glyph glyph-name="periodcentered" unicode="&#xb7;" horiz-adv-x="222" 
d="M210 333q0 -35 -30 -62t-72 -27q-28 0 -52 10q-49 22 -49 86q0 6 1 12q7 32 38.5 54t71.5 22q21 0 42 -9q50 -24 50 -85v-1z" />
    <glyph glyph-name="cedilla" unicode="&#xb8;" horiz-adv-x="281" 
d="M231 -127q0 -43 -23.5 -64.5t-61.5 -21.5q-59 0 -80 47l38 33q8 -21 33 -21q13 0 20.5 9t7.5 22q0 16 -10.5 24.5t-30.5 3.5l-35 27l17 87h61l-10 -66q33 2 53.5 -19t20.5 -61z" />
    <glyph glyph-name="ordmasculine" unicode="&#xba;" horiz-adv-x="270" 
d="M248 600q0 -55 -30.5 -92.5t-82.5 -37.5q-55 0 -80.5 40t-25.5 94q0 58 29 94.5t79 36.5q53 0 82 -40.5t29 -94.5zM181 611q0 20 -11.5 32.5t-30.5 12.5q-20 0 -32 -13.5t-12 -35.5q0 -20 10.5 -36.5t31.5 -16.5q20 0 32 17.5t12 39.5zM245 334l-190 -20l-6 93l196 11
v-84z" />
    <glyph glyph-name="guillemotright" unicode="&#xbb;" horiz-adv-x="812" 
d="M781 192l-341 -198l-35 131l227 136l-238 146l55 122q180 -133 332 -203v-134zM419 211l-342 -198l-35 130l227 136l-237 146l56 122q178 -133 331 -203v-133z" />
    <glyph glyph-name="questiondown" unicode="&#xbf;" horiz-adv-x="528" 
d="M30 183q0 91 53 147t157 94l-3 68l168 -3l-12 -150q-70 -10 -122 -50.5t-52 -110.5q0 -91 100 -91q65 0 116 39l81 -114q-82 -71 -202 -71q-119 0 -201.5 63t-82.5 179zM321 762q48 0 78.5 -32t30.5 -81q0 -51 -32.5 -82t-81.5 -31q-51 0 -82.5 32t-31.5 80q0 49 35 81.5
t84 32.5z" />
    <glyph glyph-name="Agrave" unicode="&#xc0;" 
d="M693 0l-208 -34l-37 143l-180 3l-38 -135l-219 30l231 693l237 2zM421 235l-64 246l-56 -241zM492 726l-280 20l15 140l260 -70z" />
    <glyph glyph-name="Aacute" unicode="&#xc1;" 
d="M693 0l-208 -34l-37 143l-180 3l-38 -135l-219 30l231 693l237 2zM421 235l-64 246l-56 -241zM502 800l-279 -21l3 85l261 76z" />
    <glyph glyph-name="Acircumflex" unicode="&#xc2;" 
d="M693 0l-208 -34l-37 143l-180 3l-38 -135l-219 30l231 693l237 2zM421 235l-64 246l-56 -241zM518 801l-86 -64l-104 79l-110 -79l-74 79l134 114l98 -3z" />
    <glyph glyph-name="Atilde" unicode="&#xc3;" 
d="M693 0l-208 -34l-37 143l-180 3l-38 -135l-219 30l231 693l237 2zM421 235l-64 246l-56 -241zM474 891l102 -25q-12 -55 -51.5 -90.5t-99.5 -35.5q-28 0 -49 8.5t-31 18.5t-23.5 18.5t-27.5 8.5q-17 0 -24.5 -9t-17.5 -33l-99 32q11 53 43.5 85.5t84.5 32.5
q28 0 52.5 -10t38 -22.5t28.5 -22.5t26 -10q17 0 30.5 17t17.5 37z" />
    <glyph glyph-name="Adieresis" unicode="&#xc4;" 
d="M693 0l-208 -34l-37 143l-180 3l-38 -135l-219 30l231 693l237 2zM421 235l-64 246l-56 -241zM555 822q0 -77 -90 -77q-98 0 -98 83q0 80 92 80q96 0 96 -86zM345 824q0 -81 -90 -81q-46 0 -72.5 21.5t-26.5 62.5q0 81 94 81q95 0 95 -84z" />
    <glyph glyph-name="Aring" unicode="&#xc5;" 
d="M693 0l-208 -34l-37 143l-180 3l-38 -135l-219 30l231 693l237 2zM421 235l-64 246l-56 -241zM488 750q0 -54 -39 -80t-93 -26q-61 0 -95.5 31t-34.5 76q0 50 41 78t95 28t90 -28t36 -79zM390 759q0 32 -35 32q-34 0 -34 -31q0 -14 9.5 -22.5t25.5 -8.5q34 0 34 30z" />
    <glyph glyph-name="AE" unicode="&#xc6;" horiz-adv-x="799" 
d="M779 12q-64 0 -171 5q-17 1 -37 1q-60 0 -111 -5q-10 41 -22.5 83.5t-16.5 58.5q-114 0 -170 3q-48 -129 -63 -181l-188 30q114 345 260 693h22q76 0 234.5 -9t242.5 -9v-167q-151 0 -266 9q3 -9 18 -41t18 -41q40 -2 62 -2q23 0 76 2t81 2v-166q-38 0 -90 -1t-73 -1
q7 -23 12 -53t10 -48h2q18 0 66.5 1.5t103.5 1.5v-166zM395 288l-48 189q-44 -156 -56 -189h29h70h5z" />
    <glyph glyph-name="Ccedilla" unicode="&#xc7;" horiz-adv-x="677" 
d="M475 295l177 -32q-27 -142 -99.5 -211.5t-199.5 -69.5q-158 0 -245 100t-87 256t86.5 259.5t248.5 103.5q122 0 195.5 -61t98.5 -175l-177 -27q-40 86 -111 86q-59 0 -91.5 -45t-32.5 -127q0 -84 32.5 -136t85.5 -52q45 0 78.5 36.5t40.5 94.5zM431 -162
q0 -43 -23.5 -64.5t-61.5 -21.5q-59 0 -80 47l38 33q8 -21 33 -21q13 0 20.5 9t7.5 22q0 16 -10.5 24.5t-30.5 3.5l-35 27l17 87h61l-10 -66q33 2 53.5 -19t20.5 -61z" />
    <glyph glyph-name="Egrave" unicode="&#xc8;" horiz-adv-x="537" 
d="M518 166l-3 -168h-57q-293 0 -420 9l9 475q1 154 -1 224h467l-5 -169l-253 -6l6 -85l180 8l7 -168l-187 -6l-2 -114h259zM413 758l-280 20l15 140l260 -70z" />
    <glyph glyph-name="Eacute" unicode="&#xc9;" horiz-adv-x="537" 
d="M518 166l-3 -168h-57q-293 0 -420 9l9 475q1 154 -1 224h467l-5 -169l-253 -6l6 -85l180 8l7 -168l-187 -6l-2 -114h259zM424 821l-279 -21l3 85l261 76z" />
    <glyph glyph-name="Ecircumflex" unicode="&#xca;" horiz-adv-x="537" 
d="M518 166l-3 -168h-57q-293 0 -420 9l9 475q1 154 -1 224h467l-5 -169l-253 -6l6 -85l180 8l7 -168l-187 -6l-2 -114h259zM461 801l-86 -64l-104 79l-110 -79l-74 79l134 114l98 -3z" />
    <glyph glyph-name="Edieresis" unicode="&#xcb;" horiz-adv-x="537" 
d="M518 166l-3 -168h-57q-293 0 -420 9l9 475q1 154 -1 224h467l-5 -169l-253 -6l6 -85l180 8l7 -168l-187 -6l-2 -114h259zM477 843q0 -77 -90 -77q-98 0 -98 83q0 80 92 80q96 0 96 -86zM267 845q0 -81 -90 -81q-46 0 -72.5 21.5t-26.5 62.5q0 81 94 81q95 0 95 -84z" />
    <glyph glyph-name="Igrave" unicode="&#xcc;" horiz-adv-x="404" 
d="M287 -6l-194 2q10 485 -4 721l199 -6q16 -348 -1 -717zM335 741l-280 20l15 140l260 -70z" />
    <glyph glyph-name="Iacute" unicode="&#xcd;" horiz-adv-x="404" 
d="M287 -6l-194 2q10 485 -4 721l199 -6q16 -348 -1 -717zM334 804l-279 -21l3 85l261 76z" />
    <glyph glyph-name="Icircumflex" unicode="&#xce;" horiz-adv-x="498" 
d="M334 -6l-194 2q10 485 -4 721l199 -6q16 -348 -1 -717zM429 827l-86 -64l-104 79l-110 -79l-74 79l134 114l98 -3z" />
    <glyph glyph-name="Idieresis" unicode="&#xcf;" horiz-adv-x="523" 
d="M342 -6l-194 2q10 485 -4 721l199 -6q16 -348 -1 -717zM454 836q0 -77 -90 -77q-98 0 -98 83q0 80 92 80q96 0 96 -86zM244 838q0 -81 -90 -81q-46 0 -72.5 21.5t-26.5 62.5q0 81 94 81q95 0 95 -84z" />
    <glyph glyph-name="Eth" unicode="&#xd0;" horiz-adv-x="688" 
d="M667 326q0 -165 -114.5 -261t-290.5 -96q-88 0 -189 28q-3 129 -3 243l-68 2v177l68 -1q1 126 6 276q61 12 131 12q202 0 331 -102t129 -278zM376 413l-3 -178l-89 1l2 -71q89 -9 133.5 46.5t44.5 129.5t-45.5 130t-133.5 52q-1 -40 -1 -109z" />
    <glyph glyph-name="Ntilde" unicode="&#xd1;" horiz-adv-x="725" 
d="M688 697q-18 -155 -19.5 -335t4.5 -334l-195 -53l-241 366l4 -340l-195 -4l-3 702l191 25l245 -372q5 195 25 362zM484 902l102 -25q-12 -55 -51.5 -90.5t-99.5 -35.5q-28 0 -49 8.5t-31 18.5t-23.5 18.5t-27.5 8.5q-17 0 -24.5 -9t-17.5 -33l-99 32q11 53 43.5 85.5
t84.5 32.5q35 0 64 -16.5t48.5 -32.5t32.5 -16q17 0 30.5 17t17.5 37z" />
    <glyph glyph-name="Ograve" unicode="&#xd2;" horiz-adv-x="710" 
d="M689 349q0 -167 -93.5 -257t-243.5 -90q-149 0 -240 89t-91 253q0 160 88.5 256.5t249.5 96.5q162 0 246 -96.5t84 -251.5zM474 350q0 87 -31 136t-87 49q-59 0 -94.5 -51t-35.5 -138q0 -78 30 -131t95 -53q64 0 93.5 52t29.5 136zM507 737l-280 20l15 140l260 -70z" />
    <glyph glyph-name="Oacute" unicode="&#xd3;" horiz-adv-x="710" 
d="M689 349q0 -167 -93.5 -257t-243.5 -90q-149 0 -240 89t-91 253q0 160 88.5 256.5t249.5 96.5q162 0 246 -96.5t84 -251.5zM474 350q0 87 -31 136t-87 49q-59 0 -94.5 -51t-35.5 -138q0 -78 30 -131t95 -53q64 0 93.5 52t29.5 136zM507 778l-279 -21l3 85l261 76z" />
    <glyph glyph-name="Ocircumflex" unicode="&#xd4;" horiz-adv-x="710" 
d="M689 349q0 -167 -93.5 -257t-243.5 -90q-149 0 -240 89t-91 253q0 160 88.5 256.5t249.5 96.5q162 0 246 -96.5t84 -251.5zM474 350q0 87 -31 136t-87 49q-59 0 -94.5 -51t-35.5 -138q0 -78 30 -131t95 -53q64 0 93.5 52t29.5 136zM545 801l-86 -64l-104 79l-110 -79
l-74 79l134 114l98 -3z" />
    <glyph glyph-name="Otilde" unicode="&#xd5;" horiz-adv-x="710" 
d="M689 349q0 -167 -93.5 -257t-243.5 -90q-149 0 -240 89t-91 253q0 160 88.5 256.5t249.5 96.5q162 0 246 -96.5t84 -251.5zM474 350q0 87 -31 136t-87 49q-59 0 -94.5 -51t-35.5 -138q0 -78 30 -131t95 -53q64 0 93.5 52t29.5 136zM469 877l102 -25q-12 -55 -51.5 -90.5
t-99.5 -35.5q-28 0 -49 8.5t-31 18.5t-23.5 18.5t-27.5 8.5q-17 0 -24.5 -9t-17.5 -33l-99 32q11 53 43.5 85.5t84.5 32.5q28 0 52.5 -10t38 -22.5t28.5 -22.5t26 -10q17 0 30.5 17t17.5 37z" />
    <glyph glyph-name="Odieresis" unicode="&#xd6;" horiz-adv-x="710" 
d="M689 349q0 -167 -93.5 -257t-243.5 -90q-149 0 -240 89t-91 253q0 160 88.5 256.5t249.5 96.5q162 0 246 -96.5t84 -251.5zM474 350q0 87 -31 136t-87 49q-59 0 -94.5 -51t-35.5 -138q0 -78 30 -131t95 -53q64 0 93.5 52t29.5 136zM561 811q0 -77 -90 -77q-98 0 -98 83
q0 80 92 80q96 0 96 -86zM351 813q0 -81 -90 -81q-46 0 -72.5 21.5t-26.5 62.5q0 81 94 81q95 0 95 -84z" />
    <glyph glyph-name="Oslash" unicode="&#xd8;" horiz-adv-x="721" 
d="M164 52l-66 -77l-81 65l71 83q-67 89 -67 219q0 157 88 256t247 99q118 0 200 -55q57 60 72 86l80 -58l-80 -94q72 -94 72 -232q0 -154 -102.5 -248t-251.5 -94q-104 0 -182 50zM484 351q0 82 -34 133t-90 51q-62 0 -98 -58.5t-36 -129.5q0 -40 10.5 -79t42 -72.5
t79.5 -33.5q46 0 76 31.5t40 71.5t10 86z" />
    <glyph glyph-name="Ugrave" unicode="&#xd9;" horiz-adv-x="709" 
d="M677 359q0 -69 -8 -121t-29 -98t-57 -75t-93 -46t-136 -17q-81 0 -139.5 18t-93.5 48t-55 78.5t-27 100.5t-7 123q0 59 5.5 185t5.5 134l214 12q-14 -220 -14 -293q0 -71 7 -121t16 -75.5t24 -39.5t25.5 -16.5t25.5 -2.5q65 0 95.5 41.5t34.5 156.5q3 131 -2 340l196 4
q12 -292 12 -336zM513 758l-280 20l15 140l260 -70z" />
    <glyph glyph-name="Uacute" unicode="&#xda;" horiz-adv-x="709" 
d="M677 359q0 -69 -8 -121t-29 -98t-57 -75t-93 -46t-136 -17q-81 0 -139.5 18t-93.5 48t-55 78.5t-27 100.5t-7 123q0 59 5.5 185t5.5 134l214 12q-14 -220 -14 -293q0 -71 7 -121t16 -75.5t24 -39.5t25.5 -16.5t25.5 -2.5q65 0 95.5 41.5t34.5 156.5q3 131 -2 340l196 4
q12 -292 12 -336zM513 800l-279 -21l3 85l261 76z" />
    <glyph glyph-name="Ucircumflex" unicode="&#xdb;" horiz-adv-x="709" 
d="M677 359q0 -69 -8 -121t-29 -98t-57 -75t-93 -46t-136 -17q-81 0 -139.5 18t-93.5 48t-55 78.5t-27 100.5t-7 123q0 59 5.5 185t5.5 134l214 12q-14 -220 -14 -293q0 -71 7 -121t16 -75.5t24 -39.5t25.5 -16.5t25.5 -2.5q65 0 95.5 41.5t34.5 156.5q3 131 -2 340l196 4
q12 -292 12 -336zM561 801l-86 -64l-104 79l-110 -79l-74 79l134 114l98 -3z" />
    <glyph glyph-name="Udieresis" unicode="&#xdc;" horiz-adv-x="709" 
d="M677 359q0 -69 -8 -121t-29 -98t-57 -75t-93 -46t-136 -17q-81 0 -139.5 18t-93.5 48t-55 78.5t-27 100.5t-7 123q0 59 5.5 185t5.5 134l214 12q-14 -220 -14 -293q0 -71 7 -121t16 -75.5t24 -39.5t25.5 -16.5t25.5 -2.5q65 0 95.5 41.5t34.5 156.5q3 131 -2 340l196 4
q12 -292 12 -336zM577 822q0 -77 -90 -77q-98 0 -98 83q0 80 92 80q96 0 96 -86zM367 824q0 -81 -90 -81q-46 0 -72.5 21.5t-26.5 62.5q0 81 94 81q95 0 95 -84z" />
    <glyph glyph-name="Yacute" unicode="&#xdd;" horiz-adv-x="628" 
d="M413 704h183q10 -333 10 -389q0 -363 -291 -363q-181 0 -283 149l106 66q26 -32 67 -52.5t85 -20.5q75 0 109 75q-45 -27 -96 -27q-71 0 -123 34.5t-80.5 94.5t-41.5 127.5t-13 145.5q0 96 11 178l211 -13q-14 -116 -14 -228q0 -165 81 -165q30 0 50 23.5t26 50t6 52.5
q0 37 -2 126t-1 136zM453 789l-279 -21l3 85l261 76z" />
    <glyph glyph-name="Thorn" unicode="&#xde;" horiz-adv-x="617" 
d="M34 700l196 7l3 -64q179 17 273.5 -57t94.5 -201q0 -116 -91.5 -196.5t-249.5 -87.5l4 -87l-205 -10zM392 377q0 55 -45.5 73t-104.5 5l8 -170q36 1 65 7.5t53 28.5t24 56z" />
    <glyph glyph-name="germandbls" unicode="&#xdf;" horiz-adv-x="632" 
d="M583 85q0 -67 -43.5 -107.5t-128.5 -40.5q-58 0 -105 19.5t-71 51.5l64 108q41 -30 77 -30q24 0 24 18q0 15 -16 28.5t-39 27t-45.5 31t-38.5 48t-16 69.5q0 33 11.5 57.5t27.5 38.5t32.5 26t28 29t11.5 40q0 56 -63 56q-33 0 -49 -22t-23 -85.5t-7 -196.5q0 -42 6 -270
l-191 -5q-14 212 -14 307q0 232 60 338.5t201 106.5q106 0 177 -54.5t71 -151.5q0 -41 -13.5 -70.5t-32.5 -45t-38 -26.5t-32.5 -23.5t-13.5 -27.5q0 -19 19.5 -36.5t47 -34.5t55.5 -38t47.5 -56t19.5 -79z" />
    <glyph glyph-name="agrave" unicode="&#xe0;" horiz-adv-x="638" 
d="M428 511l168 -1l-2 -533l-186 -6l1 49q-43 -43 -139 -43q-109 0 -179 69t-70 188q0 126 77.5 196.5t184.5 70.5q88 0 143 -47zM397 247q0 44 -24.5 73.5t-67.5 29.5q-41 0 -68.5 -27.5t-27.5 -72.5q0 -43 27 -70t69 -27q41 0 66.5 25.5t25.5 68.5zM454 567l-280 20
l15 140l260 -70z" />
    <glyph glyph-name="aacute" unicode="&#xe1;" horiz-adv-x="638" 
d="M428 511l168 -1l-2 -533l-186 -6l1 49q-43 -43 -139 -43q-109 0 -179 69t-70 188q0 126 77.5 196.5t184.5 70.5q88 0 143 -47zM397 247q0 44 -24.5 73.5t-67.5 29.5q-41 0 -68.5 -27.5t-27.5 -72.5q0 -43 27 -70t69 -27q41 0 66.5 25.5t25.5 68.5zM454 598l-279 -21l3 85
l261 76z" />
    <glyph glyph-name="acircumflex" unicode="&#xe2;" horiz-adv-x="638" 
d="M428 511l168 -1l-2 -533l-186 -6l1 49q-43 -43 -139 -43q-109 0 -179 69t-70 188q0 126 77.5 196.5t184.5 70.5q88 0 143 -47zM397 247q0 44 -24.5 73.5t-67.5 29.5q-41 0 -68.5 -27.5t-27.5 -72.5q0 -43 27 -70t69 -27q41 0 66.5 25.5t25.5 68.5zM500 618l-86 -64
l-104 79l-110 -79l-74 79l134 114l98 -3z" />
    <glyph glyph-name="atilde" unicode="&#xe3;" horiz-adv-x="638" 
d="M428 511l168 -1l-2 -533l-186 -6l1 49q-43 -43 -139 -43q-109 0 -179 69t-70 188q0 126 77.5 196.5t184.5 70.5q88 0 143 -47zM397 247q0 44 -24.5 73.5t-67.5 29.5q-41 0 -68.5 -27.5t-27.5 -72.5q0 -43 27 -70t69 -27q41 0 66.5 25.5t25.5 68.5zM451 721l102 -25
q-12 -55 -51.5 -90.5t-99.5 -35.5q-28 0 -49 8.5t-31 18.5t-23.5 18.5t-27.5 8.5q-17 0 -24.5 -9t-17.5 -33l-99 32q11 53 43.5 85.5t84.5 32.5q28 0 52.5 -10t38 -22.5t28.5 -22.5t26 -10q17 0 30.5 17t17.5 37z" />
    <glyph glyph-name="adieresis" unicode="&#xe4;" horiz-adv-x="638" 
d="M428 511l168 -1l-2 -533l-186 -6l1 49q-43 -43 -139 -43q-109 0 -179 69t-70 188q0 126 77.5 196.5t184.5 70.5q88 0 143 -47zM397 247q0 44 -24.5 73.5t-67.5 29.5q-41 0 -68.5 -27.5t-27.5 -72.5q0 -43 27 -70t69 -27q41 0 66.5 25.5t25.5 68.5zM514 652q0 -77 -90 -77
q-98 0 -98 83q0 80 92 80q96 0 96 -86zM304 654q0 -81 -90 -81q-46 0 -72.5 21.5t-26.5 62.5q0 81 94 81q95 0 95 -84z" />
    <glyph glyph-name="aring" unicode="&#xe5;" horiz-adv-x="638" 
d="M428 511l168 -1l-2 -533l-186 -6l1 49q-43 -43 -139 -43q-109 0 -179 69t-70 188q0 126 77.5 196.5t184.5 70.5q88 0 143 -47zM397 247q0 44 -24.5 73.5t-67.5 29.5q-41 0 -68.5 -27.5t-27.5 -72.5q0 -43 27 -70t69 -27q41 0 66.5 25.5t25.5 68.5zM452 658q0 -54 -39 -80
t-93 -26q-61 0 -95.5 31t-34.5 76q0 50 41 78t95 28t90 -28t36 -79zM354 667q0 32 -35 32q-34 0 -34 -31q0 -14 9.5 -22.5t25.5 -8.5q34 0 34 30z" />
    <glyph glyph-name="ae" unicode="&#xe6;" horiz-adv-x="519" 
d="M854 129q-48 -62 -120 -95.5t-149 -34.5q-129 -1 -185 87q-82 -127 -227 -127q-75 0 -117.5 36.5t-42.5 111.5q0 98 73.5 159t214.5 71v1q0 35 -15 51.5t-50 16.5q-62 0 -131 -53l-64 99q31 32 91.5 58.5t130.5 26.5q121 0 162 -77q58 60 168 60q111 0 176.5 -60.5
t65.5 -169.5q0 -20 -3 -38l-289 -42q5 -20 26 -32.5t53 -12.5q37 0 82.5 16.5t69.5 40.5zM301 130q-3 36 0 75q-12 -6 -43.5 -14t-47 -19.5t-15.5 -33.5q0 -38 40 -38q36 0 66 30zM670 321q-3 24 -23.5 41t-50.5 17q-34 0 -53 -23.5t-19 -54.5z" />
    <glyph glyph-name="ccedilla" unicode="&#xe7;" horiz-adv-x="559" 
d="M388 220l144 -41q-25 -103 -89.5 -152.5t-159.5 -49.5q-125 0 -193.5 78.5t-68.5 199.5q0 124 70 199.5t194 75.5q104 0 166.5 -53.5t82.5 -142.5l-148 -37q-7 28 -30.5 49.5t-59.5 21.5q-40 0 -65.5 -29t-25.5 -79q0 -51 26 -83.5t62 -32.5q29 0 57.5 21.5t37.5 54.5z
M379 -126q0 -43 -23.5 -64.5t-61.5 -21.5q-59 0 -80 47l38 33q8 -21 33 -21q13 0 20.5 9t7.5 22q0 16 -10.5 24.5t-30.5 3.5l-35 27l17 87h61l-10 -66q33 2 53.5 -19t20.5 -61z" />
    <glyph glyph-name="egrave" unicode="&#xe8;" horiz-adv-x="588" 
d="M572 129q-48 -62 -120 -95.5t-149 -34.5q-74 -1 -136.5 26t-104 86.5t-41.5 142.5q0 122 82.5 194t207.5 72q111 0 176.5 -60t65.5 -169q0 -19 -3 -39l-289 -42q5 -20 26 -32.5t53 -12.5q37 0 82.5 16.5t69.5 40.5zM388 321q-3 24 -23.5 41t-50.5 17q-34 0 -53 -23.5
t-19 -54.5zM454 567l-280 20l15 140l260 -70z" />
    <glyph glyph-name="eacute" unicode="&#xe9;" horiz-adv-x="588" 
d="M572 129q-48 -62 -120 -95.5t-149 -34.5q-74 -1 -136.5 26t-104 86.5t-41.5 142.5q0 122 82.5 194t207.5 72q111 0 176.5 -60t65.5 -169q0 -19 -3 -39l-289 -42q5 -20 26 -32.5t53 -12.5q37 0 82.5 16.5t69.5 40.5zM388 321q-3 24 -23.5 41t-50.5 17q-34 0 -53 -23.5
t-19 -54.5zM444 619l-279 -21l3 85l261 76z" />
    <glyph glyph-name="ecircumflex" unicode="&#xea;" horiz-adv-x="588" 
d="M572 129q-48 -62 -120 -95.5t-149 -34.5q-74 -1 -136.5 26t-104 86.5t-41.5 142.5q0 122 82.5 194t207.5 72q111 0 176.5 -60t65.5 -169q0 -19 -3 -39l-289 -42q5 -20 26 -32.5t53 -12.5q37 0 82.5 16.5t69.5 40.5zM388 321q-3 24 -23.5 41t-50.5 17q-34 0 -53 -23.5
t-19 -54.5zM492 611l-86 -64l-104 79l-110 -79l-74 79l134 114l98 -3z" />
    <glyph glyph-name="edieresis" unicode="&#xeb;" horiz-adv-x="588" 
d="M572 129q-48 -62 -120 -95.5t-149 -34.5q-74 -1 -136.5 26t-104 86.5t-41.5 142.5q0 122 82.5 194t207.5 72q111 0 176.5 -60t65.5 -169q0 -19 -3 -39l-289 -42q5 -20 26 -32.5t53 -12.5q37 0 82.5 16.5t69.5 40.5zM388 321q-3 24 -23.5 41t-50.5 17q-34 0 -53 -23.5
t-19 -54.5zM508 641q0 -77 -90 -77q-98 0 -98 83q0 80 92 80q96 0 96 -86zM298 643q0 -81 -90 -81q-46 0 -72.5 21.5t-26.5 62.5q0 81 94 81q95 0 95 -84z" />
    <glyph glyph-name="igrave" unicode="&#xec;" horiz-adv-x="377" 
d="M298 416q-22 -94 -22 -191q0 -62 17 -232h-201q-14 117 -14 221q0 114 16 206zM324 463l-280 20l15 140l260 -70z" />
    <glyph glyph-name="iacute" unicode="&#xed;" horiz-adv-x="377" 
d="M298 416q-22 -94 -22 -191q0 -62 17 -232h-201q-14 117 -14 221q0 114 16 206zM324 526l-279 -21l3 85l261 76z" />
    <glyph glyph-name="icircumflex" unicode="&#xee;" horiz-adv-x="472" 
d="M345 416q-22 -94 -22 -191q0 -62 17 -232h-201q-14 117 -14 221q0 114 16 206zM419 528l-86 -64l-104 79l-110 -79l-74 79l134 114l98 -3z" />
    <glyph glyph-name="idieresis" unicode="&#xef;" horiz-adv-x="496" 
d="M338 416q-22 -94 -22 -191q0 -62 17 -232h-201q-14 117 -14 221q0 114 16 206zM443 559q0 -77 -90 -77q-98 0 -98 83q0 80 92 80q96 0 96 -86zM233 561q0 -81 -90 -81q-46 0 -72.5 21.5t-26.5 62.5q0 81 94 81q95 0 95 -84z" />
    <glyph glyph-name="eth" unicode="&#xf0;" horiz-adv-x="651" 
d="M312 434l-81 53l34 47h-4q-82 0 -167 -51l-30 138q83 75 217 75q49 0 93 -11l36 50l82 -39l-33 -47q82 -52 126.5 -146.5t44.5 -203.5q0 -152 -82.5 -244t-228.5 -92q-79 0 -143.5 22.5t-108.5 77t-44 133.5q0 71 40.5 124t97 77t116.5 24q115 0 162 -45
q-7 29 -29.5 63.5t-53.5 58.5zM202 215q0 -42 32 -68.5t78 -26.5q39 0 79 30t40 69q0 37 -37 64t-90 27q-38 0 -70 -26t-32 -69z" />
    <glyph glyph-name="ntilde" unicode="&#xf1;" horiz-adv-x="594" 
d="M576 179q0 -47 -10 -192l-195 -2q1 44 6.5 124.5t5.5 112.5q0 66 -14.5 96t-48.5 30q-29 0 -55.5 -20.5t-39.5 -47.5q11 -153 15 -303l-192 -5q-9 287 -21 501l185 4l2 -49q28 31 60 46t84 15q64 0 107.5 -21.5t67 -64.5t33.5 -96.5t10 -127.5zM431 711l102 -25
q-12 -55 -51.5 -90.5t-99.5 -35.5q-28 0 -49 8.5t-31 18.5t-23.5 18.5t-27.5 8.5q-17 0 -24.5 -9t-17.5 -33l-99 32q11 53 43.5 85.5t84.5 32.5q28 0 52.5 -10t38 -22.5t28.5 -22.5t26 -10q17 0 30.5 17t17.5 37z" />
    <glyph glyph-name="ograve" unicode="&#xf2;" horiz-adv-x="582" 
d="M559 236q0 -115 -80 -181.5t-190 -66.5q-108 0 -187 65.5t-79 182.5q0 61 23.5 109t62.5 76t86 42t98 14q114 0 190 -65t76 -176zM374 241q0 42 -21.5 66.5t-59.5 24.5q-41 0 -64 -26.5t-23 -70.5t22 -70t60 -26q40 0 63 29t23 73zM436 503l-280 20l15 140l260 -70z" />
    <glyph glyph-name="oacute" unicode="&#xf3;" horiz-adv-x="582" 
d="M559 236q0 -115 -80 -181.5t-190 -66.5q-108 0 -187 65.5t-79 182.5q0 61 23.5 109t62.5 76t86 42t98 14q114 0 190 -65t76 -176zM374 241q0 42 -21.5 66.5t-59.5 24.5q-41 0 -64 -26.5t-23 -70.5t22 -70t60 -26q40 0 63 29t23 73zM447 577l-279 -21l3 85l261 76z" />
    <glyph glyph-name="ocircumflex" unicode="&#xf4;" horiz-adv-x="582" 
d="M559 236q0 -115 -80 -181.5t-190 -66.5q-108 0 -187 65.5t-79 182.5q0 61 23.5 109t62.5 76t86 42t98 14q114 0 190 -65t76 -176zM374 241q0 42 -21.5 66.5t-59.5 24.5q-41 0 -64 -26.5t-23 -70.5t22 -70t60 -26q40 0 63 29t23 73zM482 579l-86 -64l-104 79l-110 -79
l-74 79l134 114l98 -3z" />
    <glyph glyph-name="otilde" unicode="&#xf5;" horiz-adv-x="582" 
d="M559 236q0 -115 -80 -181.5t-190 -66.5q-108 0 -187 65.5t-79 182.5q0 61 23.5 109t62.5 76t86 42t98 14q114 0 190 -65t76 -176zM374 241q0 42 -21.5 66.5t-59.5 24.5q-41 0 -64 -26.5t-23 -70.5t22 -70t60 -26q40 0 63 29t23 73zM419 679l102 -25q-12 -55 -51.5 -90.5
t-99.5 -35.5q-28 0 -49 8.5t-31 18.5t-23.5 18.5t-27.5 8.5q-17 0 -24.5 -9t-17.5 -33l-99 32q11 53 43.5 85.5t84.5 32.5q28 0 52.5 -10t38 -22.5t28.5 -22.5t26 -10q17 0 30.5 17t17.5 37z" />
    <glyph glyph-name="odieresis" unicode="&#xf6;" horiz-adv-x="582" 
d="M559 236q0 -115 -80 -181.5t-190 -66.5q-108 0 -187 65.5t-79 182.5q0 61 23.5 109t62.5 76t86 42t98 14q114 0 190 -65t76 -176zM374 241q0 42 -21.5 66.5t-59.5 24.5q-41 0 -64 -26.5t-23 -70.5t22 -70t60 -26q40 0 63 29t23 73zM490 597q0 -77 -90 -77q-98 0 -98 83
q0 80 92 80q96 0 96 -86zM280 599q0 -81 -90 -81q-46 0 -72.5 21.5t-26.5 62.5q0 81 94 81q95 0 95 -84z" />
    <glyph glyph-name="oslash" unicode="&#xf8;" horiz-adv-x="587" 
d="M570 242q0 -103 -72.5 -165.5t-189.5 -62.5q-40 0 -86 8l-80 -80l-134 121l53 49q-43 56 -43 134q0 113 77.5 175.5t191.5 62.5q39 0 67 -7l37 78l158 -63l-43 -87q64 -68 64 -163zM379 245q0 38 -24 59t-61 21q-39 0 -62 -22.5t-23 -56.5q0 -35 22.5 -57t59.5 -22
q40 0 64 20.5t24 57.5z" />
    <glyph glyph-name="ugrave" unicode="&#xf9;" horiz-adv-x="602" 
d="M576 -30l-187 -4v60q-44 -61 -144 -61q-108 0 -165 67.5t-57 190.5q0 41 6.5 112.5t12.5 122.5l7 50l201 2q-31 -160 -31 -302q0 -32 19 -53t52 -21q35 0 59.5 22t24.5 58q0 118 -13 314l194 4q3 -105 10.5 -281t10.5 -281zM435 546l-280 20l15 140l260 -70z" />
    <glyph glyph-name="uacute" unicode="&#xfa;" horiz-adv-x="602" 
d="M576 -30l-187 -4v60q-44 -61 -144 -61q-108 0 -165 67.5t-57 190.5q0 41 6.5 112.5t12.5 122.5l7 50l201 2q-31 -160 -31 -302q0 -32 19 -53t52 -21q35 0 59.5 22t24.5 58q0 118 -13 314l194 4q3 -105 10.5 -281t10.5 -281zM456 630l-279 -21l3 85l261 76z" />
    <glyph glyph-name="ucircumflex" unicode="&#xfb;" horiz-adv-x="602" 
d="M576 -30l-187 -4v60q-44 -61 -144 -61q-108 0 -165 67.5t-57 190.5q0 41 6.5 112.5t12.5 122.5l7 50l201 2q-31 -160 -31 -302q0 -32 19 -53t52 -21q35 0 59.5 22t24.5 58q0 118 -13 314l194 4q3 -105 10.5 -281t10.5 -281zM483 611l-86 -64l-104 79l-110 -79l-74 79
l134 114l98 -3z" />
    <glyph glyph-name="udieresis" unicode="&#xfc;" horiz-adv-x="602" 
d="M576 -30l-187 -4v60q-44 -61 -144 -61q-108 0 -165 67.5t-57 190.5q0 41 6.5 112.5t12.5 122.5l7 50l201 2q-31 -160 -31 -302q0 -32 19 -53t52 -21q35 0 59.5 22t24.5 58q0 118 -13 314l194 4q3 -105 10.5 -281t10.5 -281zM510 673q0 -77 -90 -77q-98 0 -98 83
q0 80 92 80q96 0 96 -86zM300 675q0 -81 -90 -81q-46 0 -72.5 21.5t-26.5 62.5q0 81 94 81q95 0 95 -84z" />
    <glyph glyph-name="yacute" unicode="&#xfd;" horiz-adv-x="628" 
d="M353 496l170 12q3 -51 9 -127t8.5 -120.5t2.5 -89.5q0 -208 -58.5 -292.5t-190.5 -84.5q-147 0 -245 82l54 124q44 -52 139 -52t113 68q-27 -28 -80 -28q-57 0 -101.5 18t-71.5 48t-44.5 72.5t-24.5 86.5t-7 95q0 28 2.5 57.5t5 49t8 54t8.5 53.5l190 -13
q-13 -98 -13 -193q0 -158 71 -158q34 0 46 32t12 91q0 142 -3 215zM443 630l-279 -21l3 85l261 76z" />
    <glyph glyph-name="thorn" unicode="&#xfe;" horiz-adv-x="625" 
d="M604 280q0 -116 -72 -188.5t-182 -72.5q-68 0 -119 42q10 -160 6 -362l-189 4q0 623 -22 1011l179 5q8 -115 12 -229q50 41 133 41q113 0 183.5 -68t70.5 -183zM418 276q0 46 -25 69.5t-60 23.5q-38 0 -62.5 -26t-24.5 -70q0 -46 27.5 -68.5t63.5 -22.5q39 0 60 26.5
t21 67.5z" />
    <glyph glyph-name="ydieresis" unicode="&#xff;" horiz-adv-x="563" 
d="M342 496l170 12q3 -51 9 -127t8.5 -120.5t2.5 -89.5q0 -208 -58.5 -292.5t-190.5 -84.5q-147 0 -245 82l54 124q44 -52 139 -52t113 68q-27 -28 -80 -28q-57 0 -101.5 18t-71.5 48t-44.5 72.5t-24.5 86.5t-7 95q0 28 2.5 57.5t5 49t8 54t8.5 53.5l190 -13
q-13 -98 -13 -193q0 -158 71 -158q34 0 46 32t12 91q0 142 -3 215zM492 620q0 -77 -90 -77q-98 0 -98 83q0 80 92 80q96 0 96 -86zM282 622q0 -81 -90 -81q-46 0 -72.5 21.5t-26.5 62.5q0 81 94 81q95 0 95 -84z" />
    <glyph glyph-name="Amacron" unicode="&#x100;" 
d="M693 0l-208 -34l-37 143l-180 3l-38 -135l-219 30l231 693l237 2zM421 235l-64 246l-56 -241zM505 888l4 -124l-315 7v123z" />
    <glyph glyph-name="amacron" unicode="&#x101;" horiz-adv-x="633" 
d="M428 511l168 -1l-2 -533l-186 -6l1 49q-43 -43 -139 -43q-109 0 -179 69t-70 188q0 126 77.5 196.5t184.5 70.5q88 0 143 -47zM397 247q0 44 -24.5 73.5t-67.5 29.5q-41 0 -68.5 -27.5t-27.5 -72.5q0 -43 27 -70t69 -27q41 0 66.5 25.5t25.5 68.5zM470 729l4 -124l-315 7
v123z" />
    <glyph glyph-name="Emacron" unicode="&#x112;" horiz-adv-x="537" 
d="M518 166l-3 -168h-57q-293 0 -420 9l9 475q1 154 -1 224h467l-5 -169l-253 -6l6 -85l180 8l7 -168l-187 -6l-2 -114h259zM423 888l4 -124l-315 7v123z" />
    <glyph glyph-name="emacron" unicode="&#x113;" horiz-adv-x="588" 
d="M572 129q-48 -62 -120 -95.5t-149 -34.5q-74 -1 -136.5 26t-104 86.5t-41.5 142.5q0 122 82.5 194t207.5 72q111 0 176.5 -60t65.5 -169q0 -19 -3 -39l-289 -42q5 -20 26 -32.5t53 -12.5q37 0 82.5 16.5t69.5 40.5zM388 321q-3 24 -23.5 41t-50.5 17q-34 0 -53 -23.5
t-19 -54.5zM448 729l4 -124l-315 7v123z" />
    <glyph glyph-name="Imacron" unicode="&#x12a;" horiz-adv-x="330" 
d="M253 -6l-194 2q10 485 -4 721l199 -6q16 -348 -1 -717zM319 888l4 -124l-315 7v123z" />
    <glyph glyph-name="imacron" unicode="&#x12b;" horiz-adv-x="250" 
d="M240 416q-22 -94 -22 -191q0 -62 17 -232h-201q-14 117 -14 221q0 114 16 206zM279 729l4 -124l-315 7v123z" />
    <glyph glyph-name="dotlessi" unicode="&#x131;" horiz-adv-x="250" 
d="M240 416q-22 -94 -22 -191q0 -62 17 -232h-201q-14 117 -14 221q0 114 16 206z" />
    <glyph glyph-name="Lslash" unicode="&#x141;" horiz-adv-x="560" 
d="M549 -2q-108 7 -237 7q-139 0 -218 -6q-7 163 -7 264l-52 -13l-36 152l89 20q3 146 18 288l214 -11q-14 -141 -16 -225l127 24l17 -155q-10 -2 -146 -29q2 -90 5 -138q125 0 242 -5v-173z" />
    <glyph glyph-name="lslash" unicode="&#x142;" horiz-adv-x="373" 
d="M356 460l16 -165l-100 -25q10 -197 38 -313l-184 -13q-24 111 -33 272q-33 -8 -71 -21l-30 162q13 4 46.5 13.5t47.5 13.5h2l2 1q2 146 27 339l180 -11q-23 -146 -26 -273q71 17 85 20z" />
    <glyph glyph-name="Omacron" unicode="&#x14c;" horiz-adv-x="710" 
d="M689 349q0 -167 -93.5 -257t-243.5 -90q-149 0 -240 89t-91 253q0 160 88.5 256.5t249.5 96.5q162 0 246 -96.5t84 -251.5zM474 350q0 87 -31 136t-87 49q-59 0 -94.5 -51t-35.5 -138q0 -78 30 -131t95 -53q64 0 93.5 52t29.5 136zM508 888l4 -124l-315 7v123z" />
    <glyph glyph-name="omacron" unicode="&#x14d;" horiz-adv-x="582" 
d="M559 236q0 -115 -80 -181.5t-190 -66.5q-108 0 -187 65.5t-79 182.5q0 61 23.5 109t62.5 76t86 42t98 14q114 0 190 -65t76 -176zM374 241q0 42 -21.5 66.5t-59.5 24.5q-41 0 -64 -26.5t-23 -70.5t22 -70t60 -26q40 0 63 29t23 73zM445 729l4 -124l-315 7v123z" />
    <glyph glyph-name="OE" unicode="&#x152;" horiz-adv-x="982" 
d="M982 162l-8 -170h-57q-294 0 -420 9l1 35q-78 -35 -162 -35q-65 0 -123 21.5t-103 63t-71.5 108t-26.5 149.5q0 159 90.5 257.5t245.5 98.5q83 0 157 -32v33h467l-10 -171q-238 6 -265 6q2 -32 2 -92h5l196 7l7 -172q-125 -7 -208 -7q0 -17 -0.5 -35t-1.5 -39.5t-1 -34.5
q34 -1 120 -1zM497 354q0 89 -46 138t-103 49q-54 0 -97.5 -45.5t-43.5 -142.5q0 -84 35.5 -132.5t104.5 -48.5t109.5 50t40.5 132z" />
    <glyph glyph-name="oe" unicode="&#x153;" horiz-adv-x="948" 
d="M938 129q-48 -61 -120.5 -95t-148.5 -35q-60 -1 -116.5 16t-82.5 50q-22 -27 -72 -39t-101 -12q-110 0 -184.5 62t-74.5 184q0 121 75 186.5t191 65.5q124 0 177 -66q24 33 81 53.5t120 20.5q106 0 171.5 -61t65.5 -169q0 -18 -3 -38l-290 -42q14 -45 80 -45
q37 0 82.5 16.5t69.5 40.5zM303 167q42 0 63.5 30.5t21.5 72.5q0 43 -22.5 68.5t-60.5 25.5q-40 0 -63 -27t-23 -71q0 -45 22.5 -72t61.5 -27zM754 321q-4 24 -24.5 41t-50.5 17q-34 0 -53 -23.5t-19 -54.5z" />
    <glyph glyph-name="Scaron" unicode="&#x160;" horiz-adv-x="600" 
d="M573 198q0 -110 -77.5 -166.5t-192.5 -56.5q-117 0 -189 59t-84 161l181 21q21 -62 73 -62q19 0 38 7.5t19 23.5q0 15 -21.5 32.5t-53 34t-69 41.5t-69 53t-53 71.5t-21.5 94.5q0 95 69 148t181 53q193 0 234 -166l-168 -54q-10 36 -23.5 51t-34.5 15q-32 0 -32 -25
q0 -18 21.5 -36t54.5 -34t70.5 -40t70.5 -52t54.5 -73.5t21.5 -100.5zM124 878l88 62l102 -66l111 62l73 -80l-136 -112l-98 5z" />
    <glyph glyph-name="scaron" unicode="&#x161;" horiz-adv-x="492" 
d="M463 160q0 -82 -57 -125t-157 -43q-143 0 -234 83l53 119q87 -67 155 -67q29 0 29 18q0 15 -16 28t-40 22t-51.5 24t-51.5 33t-40 50t-16 73q0 82 57.5 121.5t150.5 39.5q116 0 214 -80l-64 -109q-26 23 -61.5 38t-62.5 15q-34 0 -34 -22q0 -15 23.5 -26t56.5 -22.5
t66 -28.5t56.5 -53t23.5 -88zM60 719l88 62l102 -66l111 62l73 -80l-136 -112l-98 5z" />
    <glyph glyph-name="Umacron" unicode="&#x16a;" horiz-adv-x="709" 
d="M677 359q0 -69 -8 -121t-29 -98t-57 -75t-93 -46t-136 -17q-81 0 -139.5 18t-93.5 48t-55 78.5t-27 100.5t-7 123q0 59 5.5 185t5.5 134l214 12q-14 -220 -14 -293q0 -71 7 -121t16 -75.5t24 -39.5t25.5 -16.5t25.5 -2.5q65 0 95.5 41.5t34.5 156.5q3 131 -2 340l196 4
q12 -292 12 -336zM508 888l4 -124l-315 7v123z" />
    <glyph glyph-name="umacron" unicode="&#x16b;" horiz-adv-x="602" 
d="M576 -30l-187 -4v60q-44 -61 -144 -61q-108 0 -165 67.5t-57 190.5q0 41 6.5 112.5t12.5 122.5l7 50l201 2q-31 -160 -31 -302q0 -32 19 -53t52 -21q35 0 59.5 22t24.5 58q0 118 -13 314l194 4q3 -105 10.5 -281t10.5 -281zM454 729l4 -124l-315 7v123z" />
    <glyph glyph-name="Ydieresis" unicode="&#x178;" horiz-adv-x="628" 
d="M413 704h183q10 -333 10 -389q0 -363 -291 -363q-181 0 -283 149l106 66q26 -32 67 -52.5t85 -20.5q75 0 109 75q-45 -27 -96 -27q-71 0 -123 34.5t-80.5 94.5t-41.5 127.5t-13 145.5q0 96 11 178l211 -13q-14 -116 -14 -228q0 -165 81 -165q30 0 50 23.5t26 50t6 52.5
q0 37 -2 126t-1 136zM534 822q0 -77 -90 -77q-98 0 -98 83q0 80 92 80q96 0 96 -86zM324 824q0 -81 -90 -81q-46 0 -72.5 21.5t-26.5 62.5q0 81 94 81q95 0 95 -84z" />
    <glyph glyph-name="Zcaron" unicode="&#x17d;" horiz-adv-x="622" 
d="M601 189l-19 -195l-557 6l-4 169l283 324l-278 4l14 202h536v-191l-277 -327zM120 878l88 62l102 -66l111 62l73 -80l-136 -112l-98 5z" />
    <glyph glyph-name="zcaron" unicode="&#x17e;" horiz-adv-x="524" 
d="M492 28l-450 -12l-5 141l215 204l-211 -2l-1 152l444 3v-150l-178 -205l176 8zM95 719l88 62l102 -66l111 62l73 -80l-136 -112l-98 5z" />
    <glyph glyph-name="circumflex" unicode="&#x2c6;" horiz-adv-x="449" 
d="M405 547l-86 -64l-104 79l-110 -79l-74 79l134 114l98 -3z" />
    <glyph glyph-name="caron" unicode="&#x2c7;" horiz-adv-x="453" 
d="M39 719l88 62l102 -66l111 62l73 -80l-136 -112l-98 5z" />
    <glyph glyph-name="breve" unicode="&#x2d8;" horiz-adv-x="334" 
d="M209 736l97 -6q-6 -60 -37 -105.5t-95 -45.5q-70 0 -105 53.5t-29 108.5l107 -3q-2 -54 30 -54q33 0 32 52z" />
    <glyph glyph-name="dotaccent" unicode="&#x2d9;" horiz-adv-x="266" 
d="M232 637q0 -50 -27.5 -77.5t-76.5 -27.5t-74.5 27.5t-25.5 77.5t26 76.5t75 26.5t76 -27t27 -76z" />
    <glyph glyph-name="ring" unicode="&#x2da;" horiz-adv-x="307" 
d="M287 597q0 -54 -39 -80t-93 -26q-61 0 -95.5 31t-34.5 76q0 50 41 78t95 28t90 -28t36 -79zM189 606q0 32 -35 32q-34 0 -34 -31q0 -14 9.5 -22.5t25.5 -8.5q34 0 34 30z" />
    <glyph glyph-name="tilde" unicode="&#x2dc;" horiz-adv-x="476" 
d="M353 679l102 -25q-12 -55 -51.5 -90.5t-99.5 -35.5q-28 0 -49 8.5t-31 18.5t-23.5 18.5t-27.5 8.5q-17 0 -24.5 -9t-17.5 -33l-99 32q11 53 43.5 85.5t84.5 32.5q28 0 52.5 -10t38 -22.5t28.5 -22.5t26 -10q17 0 30.5 17t17.5 37z" />
    <glyph glyph-name="endash" unicode="&#x2013;" horiz-adv-x="481" 
d="M466 391l-19 -155q-113 7 -216 7h-121h-87v156q24 0 63 -1t52 -1q15 0 38 1t34 1q101 0 256 -8z" />
    <glyph glyph-name="emdash" unicode="&#x2014;" horiz-adv-x="830" 
d="M811 403l-18 -168q-118 7 -227 7q-72 0 -226.5 -5t-253.5 -5h-63v168h64q102 0 260 4.5t232 4.5q103 0 232 -6z" />
    <glyph glyph-name="quoteleft" unicode="&#x2018;" horiz-adv-x="297" 
d="M276 553q0 -48 -35 -84.5t-94 -37.5q-60 -1 -93 38t-33 99q0 73 51 126.5t161 61.5l21 -64q-18 0 -48.5 -9.5t-35.5 -21.5q44 0 75 -31.5t31 -76.5z" />
    <glyph glyph-name="quoteright" unicode="&#x2019;" horiz-adv-x="297" 
d="M21 600q0 48 35 84.5t93 37.5q61 1 94 -38t33 -99q0 -73 -51 -126.5t-161 -61.5l-22 64q19 0 49.5 9.5t35.5 21.5q-44 0 -75 31.5t-31 76.5z" />
    <glyph glyph-name="quotesinglbase" unicode="&#x201a;" horiz-adv-x="297" 
d="M276 89q0 -67 -50 -120t-162 -62l-22 62q80 13 85 31q-43 0 -74.5 34.5t-31.5 77.5q0 46 35 82t93 37q61 0 94 -42.5t33 -99.5z" />
    <glyph glyph-name="quotedblleft" unicode="&#x201c;" horiz-adv-x="560" 
d="M538 553q0 -46 -33.5 -81t-88.5 -35q-57 0 -88.5 37t-31.5 94q0 30 10 58t31 53.5t60 44t91 24.5l23 -58q-15 -1 -44 -12t-35 -22q44 2 75 -28.5t31 -74.5zM276 553q0 -48 -35 -84.5t-94 -37.5q-60 -1 -93 38t-33 99q0 73 51 126.5t161 61.5l21 -64q-18 0 -48.5 -9.5
t-35.5 -21.5q44 0 75 -31.5t31 -76.5z" />
    <glyph glyph-name="quotedblright" unicode="&#x201d;" horiz-adv-x="560" 
d="M21 600q0 46 34 81.5t89 35.5q56 0 88 -37.5t32 -94.5q0 -65 -46 -116.5t-146 -63.5l-23 58q16 1 44.5 12t33.5 22q-43 -2 -74.5 29t-31.5 74zM284 600q0 48 35 84.5t93 37.5q61 1 93.5 -38t32.5 -99q0 -73 -51 -126.5t-161 -61.5l-21 64q18 0 49 9.5t36 21.5
q-44 0 -75 31.5t-31 76.5z" />
    <glyph glyph-name="quotedblbase" unicode="&#x201e;" horiz-adv-x="544" 
d="M538 83q0 -67 -49.5 -120t-162.5 -63l-21 63q80 13 85 31q-43 0 -74.5 34.5t-31.5 77.5q0 45 35.5 81.5t92.5 37.5q61 0 93.5 -42.5t32.5 -99.5zM264 77q0 -35 -16.5 -68t-62 -63t-113.5 -38l-23 58q73 15 78 34h-4q-11 0 -21 2l-17.5 3.5t-14.5 7t-11 8.5t-9.5 11.5
t-7.5 11.5t-6 14t-5 13t-5 15t-4 14q-1 2 -1 5q0 29 8 49.5t23.5 31t28 15.5t31.5 9.5t25 6.5q3 1 8 1q54 0 79 -26.5t31.5 -66.5t7.5 -41q1 -2 1 -7z" />
    <glyph glyph-name="dagger" unicode="&#x2020;" horiz-adv-x="420" 
d="M399 477l-89 -3l-22 -460h-132l-32 457l-103 7v115l104 -7l-1 186l192 -17l-4 -167l87 3v-114z" />
    <glyph glyph-name="daggerdbl" unicode="&#x2021;" horiz-adv-x="414" 
d="M397 137h-100v-29v-94h-186v90v32q-6 0 -25.5 -0.5t-66.5 -0.5l5 152q44 0 98 7v59v43l-114 8v167l104 -6v43l-1 164l192 -17q-1 -133 -4 -188l87 3v-167l-99 -3q1 -26 4.5 -64t4.5 -57h22h77z" />
    <glyph glyph-name="bullet" unicode="&#x2022;" horiz-adv-x="435" 
d="M413 363q8 -76 -31 -117t-160 -77q-3 -2 -6 -2q-82 0 -138.5 48t-56.5 128q0 85 62 142t151 57q76 0 123 -45.5t56 -133.5z" />
    <glyph glyph-name="ellipsis" unicode="&#x2026;" horiz-adv-x="796" 
d="M244 88q0 -50 -31.5 -80t-82.5 -30q-48 0 -81 28t-33 79t32.5 82.5t81.5 31.5q47 0 80.5 -29.5t33.5 -81.5zM280 84q0 50 31 80t82 30q48 0 81.5 -28t33.5 -79t-33 -83t-82 -32q-46 0 -79.5 30t-33.5 82zM783 95q0 -50 -31.5 -80.5t-81.5 -30.5q-49 0 -82 28t-33 79
t33 83t83 32q49 0 80.5 -30t31.5 -81z" />
    <glyph glyph-name="perthousand" unicode="&#x2030;" horiz-adv-x="1126" 
d="M428 554q0 -80 -58 -128t-139 -48t-135.5 48t-54.5 130q0 79 50.5 130t138.5 51q90 0 144 -53t54 -130zM849 744l-761 -797l-72 51l762 801zM826 174q0 -59 -31.5 -99t-75.5 -56t-96 -16q-84 0 -138.5 43.5t-54.5 124.5q0 84 59 134.5t148 50.5q91 0 140 -53t49 -129z
M276 560q0 20 -15.5 33.5t-34.5 13.5q-21 0 -35 -14.5t-14 -34.5t14 -32.5t33 -12.5t35.5 13t16.5 34zM620 231q-20 0 -35.5 -14.5t-15.5 -37.5q0 -22 14 -35t37 -13q24 0 38 14t14 35q0 22 -15.5 36.5t-36.5 14.5zM714 476q0 87 57.5 130.5t139.5 43.5q81 0 135.5 -44
t54.5 -127t-55.5 -132.5t-144.5 -49.5q-90 0 -138.5 50.5t-48.5 128.5zM912 422q21 0 35.5 13.5t14.5 36.5q0 22 -14 36t-36 14q-24 0 -38 -15t-14 -36q0 -22 15.5 -35.5t36.5 -13.5z" />
    <glyph glyph-name="guilsinglleft" unicode="&#x2039;" horiz-adv-x="455" 
d="M419 407l-237 -146l226 -136l-34 -131l-342 198v134q68 31 151 82t132 86l49 35z" />
    <glyph glyph-name="guilsinglright" unicode="&#x203a;" horiz-adv-x="455" 
d="M419 192l-342 -198l-35 131l227 136l-237 146l56 122q178 -133 331 -203v-134z" />
    <glyph glyph-name="fraction" unicode="&#x2044;" horiz-adv-x="840" 
d="M849 744l-761 -797l-72 51l762 801z" />
    <glyph glyph-name="Euro" unicode="&#x20ac;" horiz-adv-x="666" 
d="M659 255q-71 -273 -321 -273q-249 0 -306 261h-30v85h20q-2 35 0 53h-20v84h35q31 104 111.5 170t205.5 66q220 0 296 -216l-173 -47q-22 44 -54.5 65t-64.5 21q-28 0 -55 -15t-42 -45h158v-85h-181q-2 -35 0 -53h181v-84h-162q33 -78 100 -78q34 0 61.5 27.5t47.5 104.5
z" />
    <glyph glyph-name="trademark" unicode="&#x2122;" horiz-adv-x="651" 
d="M614 495l-117 -6l-4 64l-23 -63l-45 -1l-34 59v-64l-115 1l-7 224l118 29l55 -74l54 72l110 -22zM252 631h-61l-3 -143h-110l4 145l-59 2l3 91l228 -4z" />
    <glyph glyph-name="partialdiff" unicode="&#x2202;" horiz-adv-x="651" 
d="M630 293q0 -66 -18.5 -123.5t-55 -104.5t-99 -74.5t-143.5 -27.5q-139 0 -216 72.5t-77 172.5q0 99 72 176t182 77q19 0 36 -3t27.5 -7t32.5 -12.5t36 -13.5q-3 37 -41.5 73t-104.5 36q-23 0 -44.5 -6.5t-33.5 -13.5t-42 -27t-47 -30l-30 143q85 96 221 96
q101 0 181.5 -58t122 -149.5t41.5 -195.5zM429 219q0 41 -32.5 73.5t-83.5 32.5q-48 0 -80.5 -28.5t-32.5 -70.5t32.5 -74t81.5 -32q46 0 80.5 29t34.5 70z" />
    <glyph glyph-name="product" unicode="&#x220f;" horiz-adv-x="741" 
d="M538 403q0 -76 -58.5 -115.5t-133.5 -39.5l1 -109l-114 -8l-9 406q79 22 149 17.5t117.5 -45t47.5 -106.5zM421 400q0 30 -24.5 42t-59.5 2q0 -22 2 -96q82 -3 82 52zM5 350q0 149 105.5 254t254.5 105t254 -105.5t105 -253.5q0 -149 -105.5 -254.5t-253.5 -105.5
q-149 0 -254.5 105.5t-105.5 254.5zM57 350q0 -128 90.5 -218t217.5 -90t217 90.5t90 217.5t-90 217t-217 90t-217.5 -90t-90.5 -217z" />
    <glyph glyph-name="minus" unicode="&#x2212;" horiz-adv-x="581" 
d="M565 381l-19 -113l-530 7v113z" />
    <glyph glyph-name="notequal" unicode="&#x2260;" horiz-adv-x="537" 
d="M522 510l-20 -135l-142 9l-45 -89l183 -10l-19 -133l-235 7l-121 -231l-108 51l98 178l-97 2l4 134h163l47 92l-210 -3l-4 134l282 3l112 234l110 -62l-91 -175z" />
    <glyph glyph-name="CR" horiz-adv-x="265" 
 />
    <glyph glyph-name="a.alt" horiz-adv-x="519" 
d="M485 -42l-156 4l-10 46q-75 -49 -152 -49q-67 0 -110.5 36t-43.5 113q0 96 73.5 157.5t214.5 71.5v1q0 35 -15 51.5t-50 16.5q-62 0 -131 -53l-64 99q36 35 94.5 60t130.5 25q117 0 171 -72.5t52 -197.5zM301 130q-3 36 0 75q-12 -6 -43.5 -14t-47 -19.5t-15.5 -33.5
q0 -38 40 -38q36 0 66 30z" />
    </font>
</defs>
</svg>
